<?xml version="1.0" standalone="no"?>
<!DOCTYPE svg PUBLIC "-//W3C//DTD SVG 1.1//EN" "http://www.w3.org/Graphics/SVG/1.1/DTD/svg11.dtd" >
<svg xmlns="http://www.w3.org/2000/svg">
<metadata>
This is a custom SVG webfont generated by Font Squirrel.
Copyright   : Copyright c 2010 Sebastian Kosch sebastianaldusleaforgwith Reserved Font Name CrimsonThis Font Software is licensed under the SIL Open Font License Version 11This license is available with a FAQ at httpscriptssilorgOFL
</metadata>
<defs>
<font id="webfontPY06YkYz" horiz-adv-x="1366" >
<font-face units-per-em="2048" ascent="1434" descent="-614" />
<missing-glyph horiz-adv-x="456" />
<glyph unicode=" "  horiz-adv-x="456" />
<glyph unicode="&#x09;" horiz-adv-x="456" />
<glyph unicode="&#xa0;" horiz-adv-x="456" />
<glyph unicode="!" horiz-adv-x="559" d="M164 90q0 45 34.5 80t82.5 35q45 0 79 -35q33 -33 33 -80q0 -51 -33 -84q-35 -35 -79 -35q-47 0 -82 35t-35 84zM180 1157q0 49 29 88t76 39q43 0 65 -37q25 -43 25 -90q0 -8 -10 -104q0 -8 -23 -277l-31 -414q-4 -31 -10 -40q-8 -10 -37 -25q-12 -4 -16 8q-8 20 -10 35 q-14 258 -31 451q-4 51 -8 109t-7.5 94l-5.5 55q-6 67 -6 108z" />
<glyph unicode="&#x22;" horiz-adv-x="694" d="M84 1270q0 29 37 78t74 49h26q29 0 45.5 -27t16.5 -104q0 -57 -29 -185q-29 -131 -35 -184q-2 -29 -31 -29q-33 0 -36 27q-6 74 -39 215q-29 127 -29 160zM412 1270q0 33 36.5 80t71.5 47h31q27 0 43 -27q14 -23 14 -104q0 -59 -30 -183q-27 -109 -35 -186 q-2 -29 -33 -29q-27 0 -31 27q-6 74 -39 215q-28 127 -28 160z" />
<glyph unicode="#" horiz-adv-x="950" d="M47 371q0 23 16 82q2 10 15 10h172l24 172h-215q-12 4 -12 20q0 23 16 82q2 10 15 11h215l47 313q16 16 94 16q12 -2 17.5 -5t3.5 -11l-47 -313h188l47 313q16 16 94 16q12 -2 17.5 -5t3.5 -11l-47 -313h163q2 0 2.5 1t2.5 1t6 -4.5t4 -12.5q0 -28 -19 -86l-12 -12h-166 l-26 -172h208h5q4 0 6 -2q4 -4 4 -12q0 -28 -19 -87q-4 -8 -6 -10t-4 -2h-2h-209l-47 -303l-4 -8q-14 -8 -55 -8h-27q-27 0 -27 16l46 303h-189l-45 -303v-2l-4 -4q0 -4 -4 -4l-3 -1q-3 -1 -5 -1t-5.5 -1t-5.5 -1t-7 -1t-9 -1h-18h-27q-14 0 -18 4l-9 8v4l45 303h-172 q-12 1 -12 21zM365 463h190l23 172h-189z" />
<glyph unicode="$" horiz-adv-x="980" d="M90 332q0 16 37 16q27 0 43 -16q72 -270 315 -271q96 0 168 59.5t72 162.5q0 39 -16 77q-14 33 -26.5 55.5t-51.5 49.5l-49 33q-12 8 -58 30q-4 2 -10 6.5t-8 4.5q-213 113 -299 190q-96 86 -96 217q0 145 112.5 243.5t265.5 98.5q53 0 105 -8q39 -6 117 -23l69 -16 q23 -190 23 -272q0 -16 -15 -17q-49 4 -53 23q-8 68 -78 149q-68 80 -178 80q-217 0 -217 -194q0 -90 60 -150q57 -57 182 -129q4 -2 65 -37q66 -35 70 -39q14 -8 61 -39q49 -33 64 -47l13 -14q13 -14 34 -33q35 -35 45 -55q6 -12 23 -57q12 -33 12 -70q0 -152 -123 -254 q-125 -102 -287 -102q-76 0 -336 47q-45 121 -55 301zM328 -86l239 1452q72 0 72 -14l-242 -1456q-69 0 -69 18z" />
<glyph unicode="%" horiz-adv-x="1359" d="M98 969q0 133 84 227t215 94q129 0 211 -94q84 -96 84 -227q0 -129 -82 -224q-84 -96 -213 -96q-121 0 -211 94q-88 91 -88 226zM145 -2l965 1249q20 25 41 25q25 0 33 -2t12 -2l8 -8q2 -2 6 -8l4 -5l-966 -1247q-23 -25 -66 -25q-27 0 -37 23zM225 991q0 -102 58 -198 q55 -92 127 -93q82 0 114 74q35 76 35 178q0 109 -47 199t-123 90q-83 0 -123 -74q-41 -76 -41 -176zM674 303q0 137 86 229q88 94 217 95q127 0 209 -94.5t82 -229.5q0 -127 -80 -221q-80 -96 -213 -96q-123 0 -213 94q-88 90 -88 223zM803 327.5q0 -106.5 55 -198.5 t129 -92q82 0 115 74q35 76 35 178q0 109 -47.5 199t-120.5 90q-82 0 -125 -74q-41 -70 -41 -176.5z" />
<glyph unicode="&#x26;" horiz-adv-x="1341" d="M109 315q0 131 88 217q96 92 243 168q-53 92 -57 103q-14 33 -39 104q-20 61 -20 131q0 115 84 195t210 80q133 0 211 -59.5t78 -166.5q0 -119 -78 -206q-74 -82 -219 -174q123 -207 295 -400q55 86 82 148q33 76 33 88q0 18 -19 24q-25 8 -43 8q-27 0 -28 3q-4 12 -4 24 q0 16 6 23h158q41 0 63 2q12 2 38 3t40 1t40.5 1t39.5 3q10 -6 10 -27q0 -31 -12 -30q-25 0 -74 -13q-53 -14 -66 -20q-2 -2 -26 -45q-12 -20 -76 -117q-55 -82 -104 -137l63 -66q27 -27 47 -45q31 -28 49 -37q16 -8 35 -8q27 0 61.5 35t43.5 57q15 0 30 -12q16 -12 17 -25 l-19 -30q-8 -14 -35 -47q-25 -31 -67.5 -49.5t-97.5 -18.5q-108 0 -222 135l-8 8q-170 -150 -364 -149q-178 0 -282.5 85.5t-104.5 235.5zM281 344q0 -135 81 -199q84 -66 201 -65q63 0 133 31q71 31 117 79q-53 53 -139 168q-83 111 -135 191l-54 80q-61 -43 -104 -78 q-35 -29 -67.5 -82t-32.5 -125zM469 1085q0 -127 104 -315q109 63 152 121q47 63 47 170q0 68 -41 125q-39 53 -102 53q-68 0 -113 -43q-47 -43 -47 -111z" />
<glyph unicode="'" horiz-adv-x="370" d="M84 1270q0 33 37 80t72 47h28q29 0 45.5 -27t16.5 -104q0 -59 -31 -183q-35 -135 -39 -186q-2 -29 -31 -29q-27 0 -30 27q-6 74 -39 215q-29 127 -29 160z" />
<glyph unicode="(" horiz-adv-x="645" d="M141 610q0 174 41 348q39 162 101 283q55 109 125 184q63 70 118 70q10 0 18.5 -16.5t8.5 -30.5q0 -6 -2 -6q-101 -49 -191 -295q-88 -244 -88 -537q0 -285 101 -522q102 -242 178 -278q4 -4 4 -11q0 -10 -10 -26q-8 -14 -19 -15q-43 0 -106 68q-57 59 -127 176 q-61 104 -107 274q-45 174 -45 334z" />
<glyph unicode=")" horiz-adv-x="643" d="M90 -201q0 6 4 11q74 35 176 278q102 242 103 522q0 289 -90 537t-189 295q-2 0 -2 6q0 14 8.5 30.5t18.5 16.5q53 0 117 -70q70 -76 124 -184q61 -121 101 -283q41 -174 41 -348q0 -168 -43 -334q-43 -164 -109 -274q-70 -117 -127 -176q-63 -68 -104 -68 q-12 0 -20.5 14.5t-8.5 26.5z" />
<glyph unicode="*" horiz-adv-x="886" d="M82 913q-6 31 16 58q20 23 60 26q45 6 123 -4q74 -8 108 -6q18 6 23 17q6 12 -4 28q-10 18 -66 80q-47 53 -72 96q-43 82 13 113q66 31 102 -47q18 -41 33 -119q12 -68 28 -104q8 -18 21 -23q10 -2 25 12q29 29 57 86q33 63 65 101q20 27 58 37q27 8 53 -15 q25 -25 20 -55q-3 -31 -30 -55q-45 -37 -103 -68q-55 -29 -92 -61l-10 -29q2 -12 20 -18q33 -16 101 -29q70 -12 112 -33q37 -15 56 -43q18 -27 4 -53q-14 -31 -47 -37t-64 12q-53 31 -96 74q-45 45 -86 70l-29 6q-8 -2 -12 -27q-2 -35 6 -102q8 -66 2 -119q-2 -39 -24 -64 q-20 -23 -52 -20q-33 4 -47 31q-16 31 -8 65q9 49 43 117q33 66 39 102q2 18 -6 26.5t-27 6.5q-41 -10 -96 -39q-59 -29 -113 -39q-37 -8 -69.5 4t-34.5 41z" />
<glyph unicode="+" horiz-adv-x="1163" d="M104 457q0 23 17 82q2 10 12 10h383q10 0 10 10v381q-4 10 11 14q59 16 81 17l21 -13v-401q0 -8 6 -8h402q16 0 16 -10q0 -20 -21 -90q-4 -8 -6 -10.5t-6 -2.5h-2h-383q-6 0 -6 -6v-385q0 -18 -90 -31l-4 -1l-4 -1h-4q-10 0 -11 17v397q0 10 -12 10h-397q-13 1 -13 21z " />
<glyph unicode="," horiz-adv-x="477" d="M88 -283q0 4 23 27q45 41 51 47q29 29 51.5 80t22.5 100q0 41 -29 99q-31 61 -31 82q0 45 43 75.5t100 30.5q31 0 50 -8q25 -37 24 -127q0 -33 -4 -53q-29 -129 -78 -211q-47 -78 -176 -185h-2q-6 0 -27 17q-18 14 -18 26z" />
<glyph unicode="-" horiz-adv-x="749" d="M117 420q0 102 22 102h2l484 25h2q12 0 12 -19q0 -94 -27 -108l-483 -23h-2q-3 0 -6 6q-4 9 -4 17z" />
<glyph unicode="." horiz-adv-x="464" d="M119 90q0 45 34.5 80t82 35t81.5 -35q33 -33 33 -80q0 -51 -33 -84q-35 -35 -82 -35t-81.5 35t-34.5 84z" />
<glyph unicode="/" horiz-adv-x="847" d="M49 -55l592 1534q22 43 98 43q18 0 43 -13l-592 -1534q-2 -12 -30.5 -28.5t-73.5 -16.5q-10 0 -23 4q-9 3 -12 7z" />
<glyph unicode="0" horiz-adv-x="966" d="M47 639q0 266 119 457q117 186 317 186q203 0 320 -184.5t117 -458.5q0 -270 -117 -459q-117 -186 -320 -186q-197 0 -315 186q-121 189 -121 459zM223 639q0 -236 72 -403q70 -166 178 -166q129 0 201 166q70 164 69 413q0 240 -69 398q-72 160 -180 159 q-121 0 -195 -162q-76 -167 -76 -405z" />
<glyph unicode="1" horiz-adv-x="966" d="M225 1042.5q0 8.5 4 12.5q336 229 346 229h5q14 0 24 -39q-20 -61 -20 -186v-789q0 -113 16 -178q2 -14 59 -26q66 -14 74 -14.5t8 -35.5q0 -20 -2 -22q-221 10 -241 10q-10 0 -232 -10q-8 8 -8 32.5t8 24.5q16 0 80 15q57 12 60 26q12 49 12 115v719q0 47 -4 88 q-4 33 -8 37q-8 8 -17 8q-12 0 -35 -12l-53 -31l-39 -25q-12 6 -24.5 24.5t-12.5 27z" />
<glyph unicode="2" horiz-adv-x="966" d="M98 59q213 217 373 457q158 238 158 402q0 111 -56 167q-55 59 -141 60q-166 0 -266 -166q-12 0 -25 12q-14 14 -14 19q6 25 35 65q37 51 71 90q49 51 119 84q76 35 160 35q135 0 211 -100q78 -102 78 -226q0 -68 -27 -153q-23 -74 -78 -162l-96 -141q-45 -66 -119 -142 l-104 -110q-29 -31 -92 -92q-8 -12 4 -15h385q55 0 81.5 33t51.5 123q8 20 27 20q29 0 36 -8q-49 -242 -55 -278q-4 -33 -39 -33h-655q-10 0 -17 23q-6 21 -6 36z" />
<glyph unicode="3" horiz-adv-x="968" d="M113 109q0 94 73 94q16 0 37 -17q25 -20 41 -39q10 -12 39 -34q58 -43 154 -43q84 0 157 69q72 68 72 221q0 117 -75.5 199t-178.5 82q-86 0 -131 -12q-12 14 -12 51q0 12 4 20q133 25 219 97q82 70 82 194q0 68 -53.5 121t-120.5 53q-45 0 -80 -14q-41 -16 -57 -31 q-12 -10 -37 -35l-21 -20q-4 0 -14 18q-8 16 -8 33q57 82 121 123q72 45 176 45q84 0 166 -72q78 -70 77 -184q0 -88 -43 -149q-39 -57 -122 -121q106 -37 192 -125q88 -92 88 -221q0 -190 -133 -306q-135 -117 -334 -116q-174 0 -260 59q-18 13 -18 60z" />
<glyph unicode="4" horiz-adv-x="962" d="M66 410l606 856q18 25 47 24q25 0 24 -20v-805h125q31 0 31 -96q0 -12 -10 -21h-146v-350q-6 -10 -84 -10q-74 0 -73 16v344h-506q-14 17 -14 62zM209 481q0 -16 12 -16h365v530q0 18 -11 19q0 -2 -2 -4l-362 -523q-2 -2 -2 -6z" />
<glyph unicode="5" horiz-adv-x="968" d="M115 109q0 94 73 94q16 0 37 -17q25 -20 41 -39q10 -12 39 -34q59 -43 162 -43q82 0 149.5 71.5t67.5 218.5q0 55 -14 99q-14 45 -45 90q-33 49 -90 72q-61 25 -144 24q-106 0 -174 -20q-20 12 -35 26l97 594q385 12 469 29q10 -16 10 -41q0 -49 -13 -111 q-57 -16 -225 -22l-174 -8q-12 -4 -14 -17l-58 -319q70 27 189 26q160 0 276.5 -110.5t116.5 -259.5q0 -182 -129 -303q-127 -119 -326 -119q-182 0 -268 59q-18 13 -18 60z" />
<glyph unicode="6" horiz-adv-x="966" d="M88 416q0 157 62 301q59 141 167 252q111 115 225.5 190.5t258.5 134.5q10 0 28 -22q16 -18 17 -33q-203 -90 -342 -213q-141 -127 -197 -321q-6 -20 4 -21l4 4q29 23 103 47q80 27 133 27q137 0 233 -117q96 -119 97 -256q0 -164 -125 -282.5t-287 -118.5 q-166 0 -272 129q-109 131 -109 299zM260 420q0 -141 67.5 -247.5t166.5 -106.5q88 0 153 77q68 80 68 205q0 133 -66 223q-63 88 -190 88q-53 0 -105 -28q-45 -27 -63 -62q-29 -65 -31 -149z" />
<glyph unicode="7" horiz-adv-x="964" d="M72 942l28 133l33 166q2 25 33 25h577q16 0 82 4q33 2 54 2q14 0 14 -19q0 -14 -8 -30l-27 -54l-24 -49l-527 -1126q-6 -6 -20 -6q-25 0 -47 20q-25 20 -25 35l533 1063h-482q-33 0 -61 -29q-27 -27 -39 -55q-8 -18 -27 -74q-2 -8 -26 -10q-23 -2 -41 4z" />
<glyph unicode="8" horiz-adv-x="966" d="M106 307q0 27 7 51q4 16 12 45q6 18 22 43l15.5 22.5l11.5 16.5l35 35q12 10 18 17.5t13 11.5q2 2 8 6t14 10t14 10l33 23q6 6 33 23l25 16q8 6 0 10q-77 46 -142 129q-63 82 -63 185q0 129 100 227q102 98 232 98q137 0 233 -84q94 -82 94 -221q0 -152 -223 -293 q-15 -3 0 -12q104 -61 182 -152q80 -92 80 -190q0 -147 -114.5 -249.5t-268.5 -102.5q-162 0 -268 90q-103 88 -103 235zM264 313q0 -115 66 -186q68 -74 151 -74q100 0 158 62q59 63 59 161q0 55 -34 115q-33 57 -86 101l-80 63q-2 2 -56 35l-12 4q-6 0 -8 -2 q-84 -53 -121 -117q-37 -66 -37 -162zM309 983q0 -135 209 -256q6 -2 12 -2q8 0 13 2q135 88 135 246q0 94 -55 168q-57 76 -142 76q-74 0 -123 -66t-49 -168z" />
<glyph unicode="9" horiz-adv-x="966" d="M90 891q0 166 123 285q121 119 285 118q166 0 272 -129q109 -131 109 -299q0 -152 -65.5 -305t-164.5 -260q-106 -117 -215 -192q-117 -82 -223 -121q-14 0 -29 24q-16 27 -16 33q160 63 297 199q139 135 194 334q6 20 -2 20q-2 0 -6 -4q-23 -27 -92 -47 q-74 -23 -123 -23q-141 0 -244 109q-100 106 -100 258zM256 926q0 -129 66 -217q63 -86 188 -86q53 0 104 28q45 27 64 62q27 63 29 149q0 141 -68 248t-172 107q-88 0 -149.5 -80t-61.5 -211z" />
<glyph unicode=":" horiz-adv-x="471" d="M121 92q0 49 35 84q37 37 84 37t84 -37q35 -35 34 -84q0 -51 -34.5 -86t-84 -35t-84 35t-34.5 86zM121 741q0 49 34.5 84t84 35t84 -34.5t34.5 -84.5q0 -47 -34 -86q-33 -35 -84.5 -34.5t-83.5 34.5q-35 39 -35 86z" />
<glyph unicode=";" horiz-adv-x="487" d="M90 -281q0 4 37 35q39 33 74 88.5t35 128.5q0 61 -27 108.5t-27 55.5q0 41 43 78q41 35 97 35q20 0 36 -15q33 -31 33 -155q0 -90 -18 -144q-23 -70 -74 -122q-52 -55 -154 -142q-12 -4 -14 -4q-10 0 -27 23q-14 20 -14 30zM164 741.5q0 49.5 37 83.5q39 35 86 35 q49 0 84 -35q33 -33 32.5 -84t-33 -85.5t-83.5 -34.5t-86 34q-37 37 -37 86.5z" />
<glyph unicode="&#x3c;" horiz-adv-x="1069" d="M123 434q0 29 35 47l739 375l6 3l2 1q16 0 35 -94l-6 -18l-651 -330l661 -336q6 -3 6 -12q0 -14 -12 -57.5t-20 -43.5l-4 2q-5 1 -7 2l-749 381q-35 21 -35 80z" />
<glyph unicode="=" horiz-adv-x="1140" d="M104 253.5q0 20.5 19 82.5q2 10 12 10h889q16 0 16 -10q0 -20 -20 -90l-4 -8q-4 -4 -6 -5h-2h-889q-15 0 -15 20.5zM104 539q10 92 29 92h899q8 0 8 -10q0 -20 -20 -91q0 -2 -1 -5t-3 -5t-6 -2h-2h-889q-15 1 -15 21z" />
<glyph unicode="&#x3e;" horiz-adv-x="1069" d="M123 70l4 12l664 336l-652 330q-6 2 -6 16q0 23 14 61q12 35 19 35q2 0 3 -1q3 -3 7 -3l739 -375q35 -18 35 -47q0 -61 -35 -80l-749 -381q-2 -2 -7 -2l-3 -2q-8 0 -20.5 43.5t-12.5 57.5z" />
<glyph unicode="?" horiz-adv-x="731" d="M119 90q0 47 33 80q35 35 82 35t81.5 -35t34.5 -80q0 -49 -34.5 -84t-82 -35t-81.5 35q-33 33 -33 84zM129 1196q0 47 14 68q39 20 101 20q121 0 258 -106.5t137 -264.5q0 -106 -45 -172q-47 -68 -158 -133q-47 -27 -94 -65q-51 -43 -61 -60q-20 -35 -21 -137 q0 -27 -41 -27q-25 0 -24 17q0 4 -1 34.5t-1 57.5v96q0 31 2 45q2 20 12 39q4 6 7 18.5t5 14.5q6 16 21 31q12 12 20 24q4 6 27 23q8 6 18 12l6 4l29 21q20 14 25 14l44 28.5t25 16.5q25 16 51 39q25 18 41 49q12 23 13 49q0 84 -50 131q-51 47 -112 47q-47 0 -96 -8 q-37 -6 -58 -6q-31 0 -61 19q-33 20 -33 61z" />
<glyph unicode="@" horiz-adv-x="1636" d="M104 371q0 360 231.5 571t577.5 211q152 0 269 -61q129 -68 204 -164q82 -104 127.5 -221t45.5 -240q0 -135 -35 -240q-33 -100 -90 -153q-55 -51 -115 -76q-61 -25 -125 -25q-96 0 -159.5 70t-63.5 141q0 4 -4 0l-2 -2q-2 -2 -4 -2q-29 -53 -127 -125q-94 -70 -164 -69 q-100 0 -160 92q-57 90 -57 205q0 213 147.5 374.5t400.5 161.5l179 -16l-15 -107l-49 -446q-4 -53 -4 -55q0 -141 100 -142q70 0 121 43q55 45 78 107q31 80 39 121q10 49 10 104q0 258 -160 442q-162 186 -407 187q-274 0 -473 -176t-199 -435q0 -315 178 -505 q180 -193 539 -193q10 0 35 4q12 2 37 10q10 4 19 8.5t13.5 6.5t13.5 5t13 5l10 4q1 -7 4 -15v-3q0 -41 -67.5 -78t-188.5 -37q-152 0 -292 66q-139 66 -232 170q-94 109 -145 229q-54 129 -54 248zM608 287q0 -96 35 -137q37 -43 82 -44q80 0 166 93q88 94 90 141l29 303 q2 8 2 25q0 12 -4 24q-4 10 -27 18.5t-72 8.5q-127 0 -215 -117q-86 -114 -86 -315z" />
<glyph unicode="A" d="M41 25q0 27 6 26q23 0 64 10q35 8 51 29q43 55 94 189l348 892q6 18 10 33q2 8 7.5 18.5t5.5 14.5q2 8 12 29l12 24q4 6 16.5 18.5t18.5 14.5q8 2 27 2l16 -4l401 -1057q41 -106 58 -143q12 -31 61 -49q55 -20 74 -21q8 0 8 -37q0 -4 -4 -20q-53 2 -109.5 5t-80 4 t-29.5 1l-25 -1q-25 -1 -82 -4t-124 -5q-8 8 -8.5 32.5t10.5 24.5q18 0 59 10q37 8 43 27q2 10 2 33q0 27 -6 59q-4 20 -14 58l-7 20l-82 225q-6 8 -12 9q-76 6 -151 6q-86 0 -254 -11l-11 -6l-86 -219q-35 -104 -34 -137q0 -29 16 -41t57 -23q45 -10 60 -10q6 0 6 -22 q0 -29 -2 -35q-57 2 -109.5 5t-74 4t-23.5 1q-49 0 -70 -2q-10 -2 -32.5 -3t-34.5 -1l-72 -4q-6 6 -6 31zM494 606q0 -8 4 -8q139 -4 141 -4q86 0 182 6l6 10l-161 443z" />
<glyph unicode="B" horiz-adv-x="1183" d="M72 1282q0 27 8 35q139 -4 237 -4h168q23 0 62 1t53 1q45 0 107 -10q53 -8 110 -33q61 -27 101 -60q43 -37 71 -96q29 -61 29 -131q0 -74 -45 -133q-46 -61 -86 -86q-43 -27 -68 -35q-12 -6 -8 -10q76 -14 184 -115q109 -98 109 -231q0 -172 -139 -275 q-137 -100 -369 -100h-274l-242 -6q-6 6 -6 33q0 25 6 24q29 0 78 15q51 14 59 32q14 23 14 189v755q0 121 -14 172q-6 14 -57 29q-49 14 -80 14q-8 0 -8 25zM406 297q0 -152 32 -178q33 -29 109 -29q55 0 98 8q49 9 116.5 31t110.5 80q41 55 41 143q0 127 -86 219 q-84 90 -270 91q-53 0 -143 -9q-8 -23 -8 -65v-291zM406 760q0 -14 133 -15q61 0 110 7q84 10 137 57q55 49 56 131q0 135 -70 215q-68 78 -205 78q-96 0 -141 -14q-12 -3 -12 -19l-8 -203v-237z" />
<glyph unicode="C" horiz-adv-x="1310" d="M88 643q0 285 190.5 487.5t464.5 202.5q240 0 488 -49q0 -78 -1 -147.5t-2 -103.5t-1 -38q0 -29 -43 -28q-20 0 -27 10q-8 33 -14 51q-10 31 -37 72q-25 37 -72 74q-41 33 -114 53q-78 23 -170 22q-197 0 -334 -172q-137 -170 -137 -391q0 -164 55 -299q53 -131 178 -223 q121 -90 287 -90q197 0 305 116q29 33 49 78q18 41 33 82q12 35 16 35t29 -4q14 -2 26 -10l11 -4q0 -16 -29 -154q-27 -131 -39 -137q-145 -88 -477 -88q-266 0 -451 194q-184 194 -184 461z" />
<glyph unicode="D" horiz-adv-x="1443" d="M68 1282q0 27 8 35q139 -4 237 -4q117 0 195 2t154 2q326 0 508 -192.5t182 -452.5q0 -291 -185 -484q-184 -195 -508 -194q-6 0 -24.5 1t-52 2t-66.5 1q-113 3 -149 3q-28 0 -50 -1l-241 -6q-6 6 -6 31q0 27 6 26q29 0 78 15q51 14 59 32q14 23 14 189v755 q0 121 -14 172q-6 14 -57 29q-49 14 -80 14q-8 0 -8 25zM401 279q0 -84 31 -152q10 -23 107 -31q109 -10 153 -10q459 0 459 594q0 225 -121 387t-352 162h-10q-213 0 -240 -33q-27 -41 -27 -127v-790z" />
<glyph unicode="E" horiz-adv-x="1140" d="M57 1282q0 27 9 35q139 -4 237 -4q117 0 313 8q147 6 334 6q8 -51 31 -151q27 -117 27 -119q-10 -10 -35 -10q-27 0 -29 14q-31 109 -84 139q-59 33 -147 33h-135q-172 0 -177 -27q-10 -55 -10 -168v-319q0 -12 86 -12h107h82q29 0 53 8q10 4 21.5 7t13.5 3q10 4 20 25 q16 31 17 34q0 2 2 11.5t5 20.5l7 26q2 14 29 14q25 0 34 -10v-377q-8 -8 -32.5 -8t-30.5 14q-14 49 -25 82q-10 29 -14 33q-2 2 -8 6t-10 6q-27 16 -211 16q-145 0 -146 -18v-309q0 -131 19 -182q6 -20 137 -21h94q188 0 254 35q29 14 66 70q39 59 59 131q4 12 29 12 q37 0 49 -12l-31 -82l-33 -92l-13 -41l-13 -41q-16 -47 -19 -76q-27 0 -321.5 4t-360.5 4l-241 -6q-6 6 -7 33q0 25 7 24q29 0 77 15q53 16 62 32q12 20 12 189v755q0 127 -12 172q-4 12 -60 29q-49 14 -79 14q-9 0 -9 25z" />
<glyph unicode="F" horiz-adv-x="1101" d="M80 1282q0 27 8 35q139 -4 238 -4q117 0 313 8q147 6 334 6q8 -51 31 -151q27 -117 26 -119q-10 -10 -37 -10q-25 0 -26 14q-31 109 -84 139q-59 33 -150 33h-133q-172 0 -176 -27q-10 -55 -10 -168v-325q0 -12 84 -13h106q133 0 164 19q29 18 51 108q0 4 1 10.5t3 8.5 q2 14 31 14q25 0 35 -10v-387q-8 -8 -33 -8q-27 0 -33 14l-9 32.5l-8 30l-5 19.5q-8 25 -17 33l-16 12q-27 16 -213 16q-141 0 -141 -18v-315q0 -115 18 -187q2 -14 55 -26q61 -14 72 -15q8 0 8 -28q0 -12 -4 -29q-221 10 -231 10q-2 0 -27.5 -1t-86 -4t-126.5 -5 q-8 8 -8 31q0 27 8 26q27 0 78 12q49 12 55 29q14 51 15 180v770q0 121 -15 172q-6 14 -57 29q-49 14 -80 14q-8 0 -8 25z" />
<glyph unicode="G" horiz-adv-x="1429" d="M88 643q0 285 190.5 487.5t464.5 202.5q139 0 476 -90q8 -203 8 -248q0 -29 -43 -28q-20 0 -27 10q-55 272 -407 272q-199 0 -334 -170q-133 -166 -133 -409q0 -225 145 -410q147 -186 371 -186q174 0 260 45q12 4 12 28l-2 164v15q0 131 -14 172q-8 20 -66 32 q-59 12 -90 13q-6 0 -6 24q0 27 6 33q74 -2 139.5 -5t93 -4t29.5 -1q4 0 27.5 1t80 4t109.5 5q4 -16 4 -29q0 -29 -8 -28q-6 0 -55 -15q-39 -10 -62 -22q-20 -14 -20 -133q0 -27 4 -92q2 -33 2 -54q0 -39 14.5 -69.5t14.5 -38.5q0 -15 -49 -37l-39 -14q-12 -4 -27.5 -11.5 t-17.5 -7.5t-9.5 -2t-16.5 -5t-19 -7q-29 -10 -58 -15l-59 -12q-25 -6 -74 -10q-29 -2 -82 -6q-61 -4 -98 -4q-266 0 -451 194q-184 194 -184 461z" />
<glyph unicode="H" horiz-adv-x="1413" d="M76 25q0 27 8 26q27 0 78 12q49 12 55 29q14 51 14 178v777q0 127 -14 178q-6 16 -55 28q-51 12 -78 13q-8 0 -8 26q0 23 8 31q8 0 43 -2t63 -4q53 -4 134 -4q53 0 77 2q12 2 40 3t42 1q43 2 72 4q4 -12 4 -33q0 -25 -6 -24q-25 0 -74 -15q-53 -16 -55 -26 q-18 -70 -18 -187v-299l4 -6q262 -4 305 -4q53 0 295 4q4 4 4 8v306q0 127 -15 178q-6 16 -57 28q-53 12 -76 13q-8 0 -8 24.5t8 32.5q6 0 20.5 -1t39 -2t47.5 -3q55 -4 135 -4q51 0 76 2q12 2 39.5 3t42.5 1q37 2 69 4q4 -16 4 -29q0 -29 -8 -28q-23 0 -71 -15 q-53 -16 -56 -26q-16 -66 -16 -187v-759q0 -121 16 -187q2 -14 56 -26q61 -14 71 -15q8 0 8 -28q0 -12 -4 -29q-221 10 -227 10q-4 0 -29.5 -1t-86 -4t-126.5 -5q-8 8 -8 32.5t8 24.5q23 0 76 12q51 12 57 29q14 51 15 178v353l-4 8q-250 4 -295 4q-309 0 -309 -10v-346 q0 -115 18 -187q2 -14 55 -26q61 -14 74 -15q6 0 6 -22.5t-4 -34.5q-221 10 -231 10q-2 0 -28 -1t-86 -4t-126 -5q-8 8 -8 31z" />
<glyph unicode="I" horiz-adv-x="634" d="M76 25q0 27 8 26q27 0 78 12q49 12 55 29q14 51 14 178v777q0 127 -14 178q-6 16 -55 28q-51 12 -78 13q-8 0 -8 26q0 23 8 31q205 -8 240 -8q53 0 231 8q4 -16 4 -29q0 -29 -6 -28q-25 0 -74 -15q-53 -16 -55 -26q-18 -70 -18 -187v-759q0 -115 18 -187q2 -14 55 -26 q61 -14 74 -15q6 0 6 -28q0 -12 -4 -29q-221 10 -231 10q-2 0 -28 -1t-86 -4t-126 -5q-8 8 -8 31z" />
<glyph unicode="J" horiz-adv-x="643" d="M-190 -348q0 45 36 72q39 29 88 28q33 0 80 -43t72 -43q29 0 57 29q33 33 58 82q27 53 45 151.5t18 225.5v893q0 127 -14 178q-6 16 -57 28q-53 12 -76 13q-8 0 -8 26q0 23 8 31q8 0 42 -2t62 -4q53 -4 135 -4q53 0 78 2q12 2 40 3t42 1q43 2 72 4q4 -16 4 -29 q0 -29 -8 -28q-23 0 -72 -15q-53 -16 -55 -26q-18 -70 -19 -187v-868q0 -252 -141 -438.5t-358 -186.5q-27 0 -50 9q-37 14 -41 16l-14 8q-24 28 -24 74z" />
<glyph unicode="K" horiz-adv-x="1384" d="M82 25q0 27 8 26q25 0 78 12q49 12 55 29q14 51 15 178v777q0 127 -15 178q-6 16 -55 28q-53 12 -78 13q-8 0 -8 26q0 23 8 31q8 0 43 -2t64 -4q53 -4 133 -4q53 0 78 2q12 2 39.5 3t41.5 1q43 2 72 4q4 -12 4 -33q0 -25 -8 -24q-23 0 -72 -15q-53 -16 -55 -26 q-18 -70 -18 -187v-325l14 -13h14q63 0 115 58q233 261 344 405q49 57 49 76q0 35 -114 35q-8 0 -9 18q0 10 4 31q31 -2 68 -4q14 0 41 -1t39 -3q25 -2 67 -2q70 0 113 4q63 4 88 6q4 -12 4 -29q0 -20 -8 -20q-123 -14 -182 -84l-404 -467q-16 -18 15 -55l481 -531 q29 -33 86 -55q59 -25 80 -27q37 -4 47 -4t10 -35q0 -10 -4 -22q-221 10 -248 10q-63 0 -90 -2q-14 -2 -44 -3t-46 -1t-46 -1t-44 -3q-8 8 -8 32.5t8 24.5q29 0 55 8q31 9 31 25q0 63 -455 530q-8 8 -57 9q-14 0 -14 -17v-327q0 -115 18 -187q2 -14 55 -26q61 -14 72 -15 q8 0 8 -22.5t-4 -34.5q-221 10 -231 10q-2 0 -28 -1t-86 -4t-126 -5q-8 8 -8 31z" />
<glyph unicode="L" horiz-adv-x="1134" d="M72 31q0 25 6 24q29 0 78 13q51 12 59 30q14 23 14 189v755q0 131 -14 183q-6 16 -55 28q-53 12 -78 13q-8 0 -8 26q0 23 8 31q8 0 43 -2t63 -4q53 -4 134 -4q53 0 77 2q12 2 40 3t42 1q49 2 74 4q2 -8 2 -29q0 -29 -6 -28q-25 0 -74 -15q-53 -16 -55 -26 q-18 -70 -19 -187v-753q0 -104 19 -176q6 -20 135 -21h96q186 0 252 35q33 16 68 70q39 59 59 131q4 12 29 12q37 0 49 -12l-31 -82l-32 -92l-13.5 -41l-13.5 -41q-16 -47 -19 -76q-102 0 -323 6t-359 6l-241 -6q-6 6 -6 33z" />
<glyph unicode="M" horiz-adv-x="1818" d="M51 25q0 27 10 26q20 0 84 15q53 12 72 30q35 41 37 174q4 270 8 410l5 172t5 145q0 29 1 65t2 55.5t1 27.5q0 53 -8 80q-6 16 -67.5 28.5t-89.5 12.5q-8 0 -9 28q0 20 9 29h36.5t36.5 -2q12 0 38 -1t38 -3q23 -2 74 -2q86 0 184 8q20 -61 395 -1001q4 -4 9 -5q8 0 10 9 l311 757l80 240q86 -6 168 -6q156 0 223 6q6 -18 6 -29q0 -29 -10 -28h-4q-20 0 -57 -13q-39 -12 -56 -26q-23 -16 -22 -135q0 -117 16 -811q3 -114 31 -185q10 -18 59 -30q61 -14 74 -15q8 0 8 -26q0 -14 -4 -31q-221 10 -237 10q-2 0 -28 -1t-86.5 -4t-125.5 -5 q-8 8 -8 32.5t8 24.5q16 0 61 10q35 8 60 21q23 14 22 86v106l-22 705q-3 31 -12.5 74t-18.5 43q-4 0 -10 -15l-418 -999q-37 -86 -74 -86q-2 0 -18 4l-459 1163q-4 -287 -10 -438q-4 -84 -8 -221t-6 -189q-6 -160 -7 -165q0 -35 12.5 -51.5t71.5 -30.5q66 -16 82 -17 q8 0 8 -28q0 -12 -4 -29q-221 10 -231 10l-26 -1q-26 -1 -84 -4t-126 -5q-10 11 -10 31z" />
<glyph unicode="N" horiz-adv-x="1441" d="M41 24.5q0 26.5 4 26.5q23 0 92 17q63 14 70 32q18 45 18 189v784q0 111 -12 152q-6 16 -70 28q-61 12 -90 13q-8 0 -8 24.5t8 32.5q104 -2 205 -2q123 0 160 2q74 -137 678 -979q6 33 6 82v623q0 125 -15 176q-6 16 -67 30q-59 14 -90 15q-8 0 -8 22.5t8 30.5q8 0 43 -2 t61 -4q51 -4 131 -4q51 0 131 6q53 4 95 4q4 -16 4 -29q0 -25 -9 -24q-16 0 -88 -17q-68 -14 -69 -28q-16 -66 -17 -187v-759q0 -123 7 -281q-8 -8 -39 -8q-35 0 -66 47l-776 1100v-854q0 -135 14 -187q2 -12 68 -28q70 -16 82 -17q8 0 8 -22.5t-4 -34.5q-221 10 -230 10 l-231 -10q-4 4 -4 30.5z" />
<glyph unicode="O" horiz-adv-x="1454" d="M88 655q0 281 186.5 479.5t450.5 198.5q266 0 453 -198q188 -201 188 -479.5t-188.5 -477t-452.5 -198.5q-262 0 -451 198q-186 194 -186 477zM287 700q0 -164 51 -303q51 -141 162 -235q113 -96 258 -96q127 0 223 83.5t141 204.5t45 264q0 162 -51 302 q-51 141 -162 235q-109 94 -258 94q-190 0 -301 -166q-108 -162 -108 -383z" />
<glyph unicode="P" horiz-adv-x="1089" d="M80 1282q0 27 8 35l240 -4q31 0 141.5 4t140.5 4q70 0 133 -21q61 -20 129 -61q66 -41 105 -112.5t39 -172.5q0 -57 -25 -125q-25 -66 -73 -131q-47 -61 -129 -102t-181 -41q-111 0 -153 55q-12 14 -6 45q3 5 6 7q63 -23 133 -23q98 0 172 86q72 84 71 199q0 141 -61 225 t-192 84q-94 0 -140 -14q-10 -4 -14 -16.5t-6 -59.5q-4 -66 -4 -146v-712q0 -131 16 -174q10 -29 72 -43q66 -16 86 -17q8 0 8 -26q0 -14 -4 -31q-221 10 -260 10l-244 -10q-6 6 -6 37q0 25 6 24q29 0 78 13q51 12 59 30q14 23 15 189v755q0 121 -15 172q-6 14 -57 29 q-49 14 -80 14q-8 0 -8 25z" />
<glyph unicode="Q" horiz-adv-x="1447" d="M88 655q0 281 186.5 479.5t450.5 198.5q266 0 453 -198q188 -201 188 -480q0 -255 -147 -436q-145 -178 -301 -209q37 -16 149 -82q90 -53 160 -75q61 -20 157 -21q25 0 66 4l30 5l17 3q6 1 15 3q6 1 8 1q25 0 24 -41v-10q-131 -70 -336 -69q-92 0 -209 53 q-102 47 -237 123q-133 74 -207 96.5t-149 73.5q-72 49 -150 133q-76 82 -121 199q-47 122 -47 249zM279 700q0 -252 129 -442q131 -193 350 -192q190 0 305 167q113 164 113 385q0 250 -129 440.5t-351 190.5q-193 0 -305 -166q-112 -164 -112 -383z" />
<glyph unicode="R" horiz-adv-x="1318" d="M76 1282q0 27 8 35l240 -4q33 0 143.5 4t138.5 4q70 0 137 -21q74 -23 140 -61q68 -41 110 -113q45 -78 45 -172q0 -86 -63 -176q-66 -94 -170 -141q-20 -8 -12 -21q104 -215 229 -352q193 -211 311 -211q6 -12 6 -26q0 -18 -6 -31q-23 -6 -53 -6q-280 0 -485 289 q-33 43 -74 104l-59 88q-12 18 -46 59q-27 35 -43 48q-23 18 -41 26t-73 8q-6 0 -14.5 -1t-10.5 -1q-8 0 -16 -8t-8 -24v-293q0 -131 16 -174q10 -29 72 -43q66 -16 86 -17q8 0 8 -26q0 -14 -4 -31q-221 10 -260 10l-244 -10q-6 6 -6 37q0 25 6 24q29 0 78 13q51 12 59 30 q14 23 15 189v755q0 121 -15 172q-6 14 -57 29q-49 14 -80 14q-8 0 -8 25zM410 756q0 -57 174 -58h51q72 0 143 70q76 72 76 186q0 279 -281 279q-94 0 -139 -14q-4 -2 -12 -17q-4 -10 -8 -59q-4 -61 -4 -146v-241z" />
<glyph unicode="S" horiz-adv-x="980" d="M82 356q0 12 32.5 12.5t49.5 -18.5q68 -289 332 -289q98 0 170 62q70 61 69 170q0 45 -10 74q-8 25 -27 55q-14 25 -45 47q-45 33 -51 37q-37 25 -65 39q-27 16 -45.5 24.5t-22.5 10.5l-80 49q-2 2 -76 49q-55 35 -77 61q-2 2 -56 66q-33 43 -45 84q-12 43 -12 92 q0 154 116.5 252t274.5 98q57 0 84 -4q59 -8 64 -10q8 -2 31.5 -9.5t39.5 -11.5l82 -20q25 -109 25 -287q0 -12 -21 -12q-49 0 -51 18q-8 86 -86 172q-74 82 -182 82q-121 0 -168 -59q-49 -61 -49 -148q0 -43 14 -73q25 -55 27 -58q18 -27 51 -53q45 -37 53 -43l70 -43 q20 -12 40.5 -26.5t22.5 -14.5l72 -43l82 -51q35 -25 67 -53q53 -45 70 -70q20 -29 39 -76q18 -45 18 -92q0 -158 -125 -262t-292 -104q-68 0 -119 8q-76 12 -148 28q-27 6 -50 12.5t-34 8.5l-10 2q-49 245 -49 317z" />
<glyph unicode="T" horiz-adv-x="1337" d="M55 1057l39 284q84 -20 137 -20q29 0 213.5 -4t225.5 -4q43 0 227 4t213 4q53 0 137 20l39 -284q-14 -14 -49 -15q-14 0 -18 11q-27 106 -70 143q-41 35 -156 35q-211 0 -219 -31q-18 -66 -18 -201v-720q0 -115 18 -187q2 -14 55 -26q61 -14 72 -15q8 0 8 -28 q0 -12 -4 -29q-221 10 -231 10q-2 0 -27.5 -1t-86 -4t-126.5 -5q-8 8 -8 31q0 27 8 26q25 0 78 12q49 12 55 29q14 51 15 178v723q0 176 -19 207q-15 31 -215 31q-115 0 -155.5 -35t-67.5 -143q-4 -10 -21 -11q-35 1 -49 15z" />
<glyph unicode="U" horiz-adv-x="1437" d="M66 1292q0 23 8 31q205 -8 239 -8q55 0 234 8q4 -16 4 -27q0 -31 -8 -30q-25 0 -74 -15q-53 -16 -55 -26q-18 -70 -19 -187v-446q0 -223 97 -361q94 -133 272 -133q342 0 342 451v500q0 125 -14 176q-6 16 -68 30q-59 14 -90 15q-8 0 -8 22.5t8 30.5q8 0 43 -2t61 -4 q51 -4 131 -4q51 0 131 6q53 4 95 4q4 -16 4 -29q0 -25 -8 -24q-16 0 -88 -17q-68 -14 -70 -28q-16 -66 -16 -187v-485q0 -311 -131.5 -432t-368.5 -121q-240 0 -367 139q-129 141 -129 453v455q0 133 -12 178q-6 16 -57 28q-53 12 -78 13q-8 -1 -8 26z" />
<glyph unicode="V" horiz-adv-x="1417" d="M35 1292q0 23 8 31l229 -8q70 0 248 8q2 -6 2 -33q0 -25 -6 -24.5t-39 -3.5q-18 -2 -51 -21q-29 -16 -29 -41q0 -58 252 -676q53 -135 86 -211q6 -10 18.5 -4t14.5 15l299 725q39 104 39 139q0 27 -33 49q-25 16 -59 25q-18 4 -47 4q-8 0 -8.5 24.5t8.5 32.5 q166 -8 213 -8q25 0 202 8q4 -16 4 -29q0 -29 -8 -28q-90 0 -121 -56q-45 -80 -98 -206l-399 -957q-25 -66 -70 -65q-14 0 -20 12l-410 1034q-47 127 -90 193q-14 20 -57 32.5t-70 12.5q-8 -1 -8 26z" />
<glyph unicode="W" horiz-adv-x="2150" d="M33 1292q0 23 8 31q205 -8 252 -8q31 0 209 8q4 -12 4 -33q0 -25 -8 -24q-18 0 -33 -2q-22 -3 -43 -19q-25 -18 -25 -37q0 -57 47 -147l414 -821q6 -10 16 -4q12 8 15 14l166 346l-211 432q-61 123 -117 193q-14 20 -53 32q-37 12 -62 13q-8 0 -8 30q0 18 8 27 q205 -8 252 -8q29 0 207 8q4 -12 4 -33q0 -25 -8 -24q-20 0 -33 -2q-20 -4 -41 -19q-23 -16 -22 -37q0 -55 45 -147l133 -270l139 292q29 63 29 117q0 34 -43 49q-45 16 -76 17q-8 0 -8 24.5t8 32.5q141 -8 203 -8q29 0 207 8q4 -12 4 -33q0 -25 -8 -24q-14 0 -68 -17 q-49 -14 -70 -39q-35 -41 -116 -206l-154 -316l217 -448q12 -20 25 10l358 821q35 86 35 127q0 20 -27 41q-20 14 -49 23q-16 4 -39 4q-8 0 -8 24.5t8 32.5q141 -8 205 -8q55 0 76 2l61 4q10 2 30.5 2h29.5q4 -16 4 -29q0 -29 -8 -28q-23 0 -64 -15q-43 -16 -65 -41 q-58 -68 -117 -202l-424 -961q-31 -63 -78 -63q-12 0 -18 10l-244 500l-215 -447q-31 -63 -78 -63q-12 0 -18 10l-521 1034q-61 123 -116 193q-14 20 -54 32q-37 12 -61 13q-8 -1 -8 26z" />
<glyph unicode="X" horiz-adv-x="1374" d="M14 20q0 31 9 31q6 0 43 4q31 4 67 17q45 16 66 37l428 559l-281 428q-61 98 -133 139q-55 31 -111 31q-8 0 -8 24.5t8 32.5q219 -8 250 -8q78 0 256 8q2 -6 2 -33q0 -25 -6 -24q-37 0 -78 -15q-43 -15 -43 -49q0 -23 25 -59l229 -350q33 45 47 61q20 27 35 43t23 27 l51 67l51 72q6 8 16.5 23.5l22.5 33.5q23 33 31 51.5t8 32.5q0 18 -41 41q-39 20 -98 21q-8 0 -8.5 24.5t8.5 32.5q166 -8 254 -8q45 0 223 8q4 -12 4 -33q0 -25 -8 -24q-25 0 -101 -17q-70 -14 -92 -41l-375 -491l383 -586q23 -37 84 -59q55 -20 113 -21q10 0 10 -31 q0 -14 -4 -26q-57 2 -110.5 5t-76 4t-24.5 1t-33.5 -1t-104.5 -4t-153 -5q-8 8 -8 32.5t8 24.5q27 0 72 17q43 14 43 41q0 8 -8 22l-301 459q-328 -438 -328 -479q0 -10 8 -21q9 -12 43 -24q39 -14 84 -15q8 0 9 -31q0 -18 -5 -26q-209 10 -225 10q-25 0 -246 -10 q-4 16 -4 26z" />
<glyph unicode="Y" horiz-adv-x="1296" d="M31 1292.5q0 22.5 8 30.5q45 -2 106 -6q51 -4 134 -4q66 0 264 10q2 -6 2 -31q0 -23 -6 -22q-39 0 -78 -17q-43 -18 -43 -51q0 -20 22 -59l224 -424q12 -10 20 4q272 410 272 481q0 20 -41 43t-98 23q-6 0 -6 22q0 25 6 31q184 -10 238 -10q63 0 127 6q43 4 84 4 q4 -16 4 -29q0 -25 -8 -24q-23 0 -84 -19q-57 -16 -80 -43l-221 -358q-145 -242 -146 -268v-303q0 -121 17 -187q2 -12 55 -28.5t67 -16.5q8 0 9 -24q0 -12 -5 -29q-221 10 -225 10q-2 0 -26.5 -1t-83 -4t-125.5 -5q-8 8 -8 29q0 25 8 24q29 0 73 14q49 15 56 31 q14 57 14 193v250q0 28 -43 110q-63 123 -248 453q-33 63 -49 84q-23 27 -49 45q-14 10 -66 28q-41 14 -63 15q-8 0 -8 22.5z" />
<glyph unicode="Z" horiz-adv-x="1198" d="M57 979q55 252 68 350q14 -4 143 -10q126 -6 160 -6h217q182 0 422 18q6 -4 12 -24q6 -25 6 -41q-4 -16 -747 -1114q-14 -20 -14 -29q0 -20 28 -21h453q74 0 123 21q51 20 86 65q25 31 47 72q8 12 35 84q2 6 28 6q29 0 47 -18q-61 -199 -88 -332h-991q-16 20 -16 51 q0 27 8 35l766 1131h-424q-131 0 -188 -56q-59 -57 -97 -192q-2 -8 -18 -8q-48 0 -66 18z" />
<glyph unicode="[" horiz-adv-x="720" d="M242 -158v1592q0 47 39 47q49 0 143 4q86 4 119 8q31 4 57 4q12 0 12 -22q0 -45 -37 -64q-90 -20 -200 -20q-6 0 -10.5 -4.5t-4.5 -8.5v-4v-1472q4 -16 15 -17q104 0 203 -32q25 -8 24 -46q0 -6 -4 -18l-4 -12l-4 -4q-135 23 -309 22q-39 0 -39 47z" />
<glyph unicode="\" horiz-adv-x="858" d="M72 1509q15 12 43 13q77 0 98 -43l573 -1452q6 -12 7 -41q0 -53 -48 -64l-47 4z" />
<glyph unicode="]" horiz-adv-x="720" d="M115 1475q0 23 10 22h2q139 -16 319 -16q35 0 35 -47v-1592q0 -47 -35 -47q-74 0 -149 -6q-113 -8 -121 -10l-43 -6q-10 2 -10 22q0 23 10 41l19 17q90 33 200 32q4 0 8.5 4.5t4.5 8.5l2 4v1472q-4 16 -15 17l-202 20l-3 2l-4 2q-4 2 -4 4l-8 8q-6 6 -8 10.5t-6 16.5 q-2 7 -2 21z" />
<glyph unicode="^" horiz-adv-x="888" d="M141 997q2 6 52 52q51 47 112 127q72 92 111 178q14 27 20 26q16 0 29 -12q8 -8 18 -29q12 -25 37 -65q23 -37 66 -98q55 -63 59 -68l72 -74l16 -16t12 -13l5 -6q0 -10 -9 -28q-8 -20 -16 -21q-27 0 -119 80q-84 74 -162 164q-66 -84 -157.5 -164t-118.5 -80q-8 0 -14 13 q-10 18 -11 22z" />
<glyph unicode="_" horiz-adv-x="935" d="M0 -66q9 92 31 93h897q8 0 8 -11q0 -20 -21 -90q0 -2 -1 -5t-3 -5t-6 -2h-2h-889q-14 0 -14 20z" />
<glyph unicode="`" horiz-adv-x="653" d="M209 1325q0 12 4 18q6 10 24.5 20.5t53.5 10.5q49 0 67 -18q25 -29 80 -107q33 -45 76 -114q31 -49 31 -56q0 -25 -24.5 -24.5t-170.5 110.5q-141 109 -141 160z" />
<glyph unicode="a" horiz-adv-x="845" d="M78 182q0 41 22 82q23 43 52 66q39 31 81 51q66 31 91 39l96 33q20 6 48 16t36 12q18 6 18 31v150q0 66 -41 100.5t-96 34.5q-57 0 -98 -41t-41 -109q0 -70 -82 -69q-55 0 -78 38q0 84 127 170t256 86q109 0 158 -53q47 -49 47 -172v-461q0 -41 22.5 -69.5t59.5 -28.5 q25 0 69 29q8 0 9 -17q0 -27 -11 -43q-82 -70 -139 -69q-43 0 -88 39q-41 35 -57 79q-2 0 -17 -14q-4 -4 -16 -13t-19 -16q-4 -2 -51 -34q-28 -18 -67 -31q-41 -12 -78 -12q-92 0 -154 49q-59 47 -59 147zM246 213q0 -55 34.5 -84t88.5 -29q55 0 102 33q51 35 51 68v205 q-4 -2 -14 -6.5t-28.5 -9.5t-35.5 -11q-76 -27 -98 -37q-34 -15 -67 -49q-33 -33 -33 -80z" />
<glyph unicode="b" horiz-adv-x="997" d="M14 1280q0 33 13 33q68 6 110 14q39 6 80 21q28 9 49 18q12 4 29 16l8 7h4q8 0 17 -13q6 -8 10 -20q-23 -68 -23 -174v-351q0 -23 6 -22q4 0 7 2q28 22 86 43q61 23 102 23q195 0 301 -132q109 -133 109 -278q0 -193 -141.5 -336t-311.5 -143q-72 0 -139 12q-18 4 -38 7 t-29 5t-11 2q-18 0 -45 -12q-23 -10 -31 -10q-6 0 -24.5 6t-18.5 14q0 2 6 33q6 33 13 90q6 61 6 135v828q0 68 -13 129q-10 31 -102 30h-16q-13 0 -13 23zM311 193q0 -63 60 -93q61 -29 137 -28q113 0 178 108q63 106 64 244q0 160 -82 256q-82 98 -219 98 q-55 0 -96.5 -30.5t-41.5 -90.5v-464z" />
<glyph unicode="c" horiz-adv-x="808" d="M74 418q0 186 100 319q101 135 289 135q219 0 303 -102q0 -133 -74 -133q-37 0 -53 14.5t-45 55.5q-61 92 -148 92q-82 0 -149.5 -78t-67.5 -234q0 -160 80 -266q78 -104 219 -104q47 0 80 8q55 14 66 18q35 14 45 23q12 8 33 20l14 11q12 0 12 -27q0 -15 -12 -37 q-37 -51 -119 -100q-76 -45 -170 -45q-166 0 -284.5 125t-118.5 305z" />
<glyph unicode="d" horiz-adv-x="993" d="M76 391q0 197 137 342q139 147 309 148q84 0 150 -35q14 0 14 37v215q0 68 -12 129q-10 31 -103 30h-16q-12 0 -12 23q0 33 12 33q68 6 111 14q39 6 79 21q28 9 50 18q12 4 28 16l8 7h5q8 0 16 -13q6 -8 10 -20q-23 -68 -22 -174v-899q0 -98 12 -154q2 -10 22 -20 q12 -6 37 -10.5t37 -4.5h19q6 -3 6 -24q0 -29 -12 -29q-47 -4 -68 -8q-12 -2 -35.5 -7.5t-34.5 -7.5q-12 -2 -34.5 -8t-26.5 -6q-43 -10 -45 -10l-19 -6q-12 0 -12 35v22q0 6 -2 8t-6 0q-111 -61 -211 -61q-166 0 -278.5 118.5t-112.5 280.5zM248 451q0 -145 78 -254 q76 -106 217 -107q68 0 104 31q39 33 39 84v475q0 43 -45 80q-47 37 -145 37q-119 0 -183 -105q-65 -106 -65 -241z" />
<glyph unicode="e" horiz-adv-x="858" d="M74 418q0 211 112 332q114 123 283 122q90 0 164 -34q68 -33 106 -90q33 -51 54 -113q18 -57 18 -113q0 -40 -12 -49q-10 -8 -47 -8h-504q-16 0 -17 -10q0 -127 76 -234q74 -104 221 -104q47 0 80 8q55 14 66 18q35 14 45 23q12 8 33 20l14 11q12 0 12 -27q0 -15 -12 -37 q-37 -51 -119 -100q-76 -45 -170 -45q-166 0 -284.5 125t-118.5 305zM236 561q0 -12 12 -12h391q8 0 8 18q0 68 -53 148q-55 84 -143 84q-104 0 -160 -90q-55 -90 -55 -148z" />
<glyph unicode="f" horiz-adv-x="600" d="M53 12q-2 8 -1.5 15.5t1.5 13.5q2 10 6 10q18 0 68 15q47 12 49 26q20 74 21 178v459q0 14 -11 14h-106q-6 0 -6 13q0 18 32 51q31 31 68 31h12q10 0 11 12v27q0 211 125 360q129 154 272 154t190 -78q0 -127 -71 -127q-27 0 -51 31q-33 41 -56 63q-33 33 -74 33 q-88 0 -137 -109q-47 -102 -47 -254v-102q0 -10 10 -10h222q10 0 10 -15q0 -31 -25 -80h-205q-12 0 -12 -12v-461q0 -108 19 -178q2 -14 49 -26q53 -14 61 -15q6 0 8 -22q2 -20 -2 -35q-55 2 -109.5 5t-77 4t-26.5 1q-2 0 -24.5 -1t-74.5 -4t-112 -5q-3 3 -6 18z" />
<glyph unicode="g" horiz-adv-x="946" d="M57 -231q0 121 197 211q-55 10 -100 51q-45 43 -45 100q0 55 45 109q47 57 100 92q-57 20 -111 94q-51 72 -51 158q0 119 98 198q100 82 244 82q68 0 164 -26.5t164 -26.5h117q12 -3 12 -49q0 -29 -12 -29h-144q-8 0 -8 -6l23 -47q20 -47 20 -96q0 -109 -96 -195 t-236 -86q-70 0 -112 8q-35 -23 -56 -49q-29 -39 -28.5 -63.5t16.5 -44.5q16 -18 45 -25q41 -8 59.5 -10t65.5 -2h14q242 -2 349 -51q100 -45 100 -142q0 -154 -131 -266q-127 -109 -334 -113h-13q-129 0 -243 56q-113 55 -113 168zM199 -188q0 -88 88 -140q90 -53 196 -53 q121 0 199 66q76 63 76 145q0 86 -82 113q-86 29 -326 28l-12 -4q-2 -2 -19 -8q-4 -2 -10 -4q-8 -2 -10 -4q-6 -6 -16 -12q-8 -4 -13.5 -8.5t-7.5 -4.5l-16 -12q-14 -10 -17 -14q-6 -12 -12 -18.5t-10 -18.5l-6 -25q-2 -8 -2 -26zM246 592q0 -92 57 -155.5t133 -63.5 q78 0 129 59.5t51 142.5q0 92 -57 156q-59 66 -133 66q-77 0 -129 -62q-51 -59 -51 -143z" />
<glyph unicode="h" horiz-adv-x="1058" d="M37 27q0 25 6 24q18 0 72 15q49 12 51 26q14 55 14 137v869q0 68 -12 129q-8 31 -102 30h-19q-10 0 -10 23q0 33 10 33q72 8 113 14q39 6 80 21q28 9 49 18q12 4 28 16l9 7h4q6 0 16 -13q6 -8 10 -20q-23 -68 -22 -174v-439q0 -8 4 -8q2 0 6 4q41 47 125 92.5t156 45.5 q131 0 190 -96.5t59 -297.5v-215q0 -111 17 -176q2 -14 51 -26q57 -14 68 -15q6 0 8 -22q1 -7 1 -14q0 -13 -3 -21q-55 2 -109.5 5t-77 4t-26.5 1q-2 0 -24.5 -1t-75 -4t-111.5 -5q-8 8 -8 32.5t8 24.5q18 0 67 15q45 12 48 26q14 55 14 139v213q0 182 -51.5 246t-157.5 64 q-59 0 -118.5 -47.5t-59.5 -81.5v-355q0 -113 16 -178q2 -14 51 -26q57 -14 68 -15q6 0 8 -22q2 -20 -2 -35q-55 2 -109.5 5t-77 4t-26.5 1t-27.5 -1t-80 -4t-111.5 -5q-6 6 -6 33z" />
<glyph unicode="i" horiz-adv-x="536" d="M63 26.5q0 24.5 9 24.5q18 0 71 15q49 12 52 26q14 55 14 139v379q0 76 -29 109q-20 23 -49 33q-25 8 -47 8q-20 0 -21 4q0 47 13 49q207 31 276 53h4l2 1q2 1 4 1q8 0 11 -16q2 -18 0 -27q-10 -88 -11 -143v-412q0 -113 17 -178q2 -14 51 -26q57 -14 68 -15q6 0 8 -22 q1 -7 1 -14q0 -13 -3 -21q-55 2 -109.5 5t-77 4t-26.5 1t-27.5 -1t-80 -4t-111.5 -5q-9 8 -9 32.5zM170 1186q0 43 28.5 71.5t71.5 28.5t72 -28.5t29 -71.5t-29 -72t-72 -29t-71.5 29t-28.5 72z" />
<glyph unicode="j" horiz-adv-x="475" d="M-47 -418l22 12q29 14 56 41q37 37 63 80q31 51 53 150q23 102 23 225v520q0 76 -29 109q-20 23 -49 33q-25 8 -47 8q-18 0 -18 4q0 47 12 49q203 29 274 53h6l5 2q8 0 10 -16q2 -9 1.5 -15.5t-1.5 -11.5q-10 -88 -10 -143v-547q0 -250 -78 -375q-49 -78 -127 -139 q-72 -57 -142 -84q-14 8 -24 31q-2 5 -2 8.5t2 5.5zM119 1186q0 43 28.5 71.5t69.5 28.5q43 0 71.5 -28.5t28.5 -71.5t-28.5 -72t-71.5 -29q-41 0 -69.5 29t-28.5 72z" />
<glyph unicode="k" horiz-adv-x="991" d="M29 26.5q0 24.5 8 24.5q16 0 69 15q49 12 52 26q14 55 14 139v867q0 68 -12 129q-8 31 -103 30h-16q-12 0 -12 23q0 33 12 33q68 6 111 14q39 6 79 21q28 9 50 18q12 4 28 16l8 7h5q6 0 16 -13q6 -8 10 -20q-23 -68 -22 -174v-701q41 8 51 19l47.5 39.5t44.5 38.5l72 61 l45 39q25 25 30 33q8 10 9 22q0 25 -45 29q-39 2 -45 8q-14 39 2 45h157q41 0 64 2q12 2 37.5 3t40 1t40 1t37.5 3q10 -4 11 -16q0 -10 -4 -27q-2 -12 -9 -12q-25 0 -73 -12q-45 -10 -64 -23q-53 -33 -131 -94q-82 -63 -166 -147l144 -156l137 -156q63 -68 73 -76 q34 -28 87 -43q55 -16 73 -16q8 0 8 -31q0 -20 -2 -22q-53 2 -109.5 5t-79 4t-28.5 1l-22 -1q-23 -1 -75 -4t-112 -5q-8 8 -8 30.5t8 22.5q25 0 47 8q25 9 25 19q0 4 -2 6l-291 315l-24 -6v-119q2 -127 16 -178q2 -14 51 -26q57 -14 70 -15q4 0 6 -22q4 -25 0 -35 q-55 2 -109.5 5t-78 4t-27.5 1t-27.5 -1t-79 -4t-110.5 -5q-8 8 -8 32.5z" />
<glyph unicode="l" horiz-adv-x="501" d="M31 26.5q0 24.5 8 24.5q16 0 70 15q49 12 51 26q14 55 14 139v867q0 68 -12 129q-10 31 -103 30h-16q-12 0 -12 23q0 33 12 33q68 6 111 14q39 6 79 21q28 9 50 18q12 4 28 16l8 7h5q8 0 16 -13q6 -8 10 -20q-23 -68 -22 -174v-912q0 -113 16 -178q2 -14 51 -26 q57 -14 70 -15q4 0 6 -22q1 -7 1 -14q0 -13 -3 -21q-55 2 -109.5 5t-77 4t-26.5 1t-26.5 -1t-78 -4t-112.5 -5q-8 8 -8 32.5z" />
<glyph unicode="m" horiz-adv-x="1599" d="M53 26.5q0 24.5 8 24.5q18 0 72 15q49 12 51 26q14 55 15 139v379q0 76 -29 109q-20 23 -49 33q-25 8 -47 8q-20 0 -21 4q0 47 13 49q207 31 276 53h4l6 2q8 0 10 -16q2 -18 0 -27q-8 -49 -8 -80q0 -8 4 -8q2 0 7 4q47 51 124 93q80 43 150 43q82 0 133 -43t74 -101 q154 143 309 144q254 0 254 -385v-222q0 -121 14 -178q2 -14 54 -26q57 -14 67 -15q6 0 8 -22q1 -7 1 -14q0 -13 -3 -21q-55 2 -109.5 5t-78 4t-27.5 1t-26.5 -1t-77.5 -4t-113 -5q-8 8 -8 32.5t8 24.5q18 0 72 15q47 12 49 26q14 55 14 127v227q0 307 -200 308 q-74 0 -129 -43q-53 -41 -54 -72v-6q0 -4 1 -7l1 -3q8 -43 9 -146v-225q0 -94 16 -160q2 -14 51 -26q57 -14 68 -15q6 0 8 -22q2 -20 -2 -35q-55 2 -109.5 5t-77 4t-26.5 1t-27.5 -1t-79 -4t-112.5 -5q-8 8 -8 32.5t8 24.5q18 0 72 15q49 12 51 26q12 47 12 139v205 q0 317 -190 318q-61 0 -121 -45q-61 -45 -62 -86v-353q0 -113 17 -178q2 -14 51 -26q57 -14 67 -15q6 0 9 -22q2 -20 -2 -35q-55 2 -109.5 5t-77 4t-27 1t-28 -1t-78.5 -4t-113 -5q-8 8 -8 32.5z" />
<glyph unicode="n" horiz-adv-x="1085" d="M57 26.5q0 24.5 9 24.5q18 0 71 15q49 12 51 26q14 55 15 139v379q0 76 -29 109q-20 23 -49 33q-25 8 -47 8q-20 0 -21 4q0 47 13 49q207 31 276 53h4l6 2q8 0 11 -16q2 -18 0 -27q-8 -49 -9 -80q0 -8 4 -8q2 0 7 4q47 51 125 93q80 43 149 43q141 0 197 -101 q57 -104 57 -323v-183q0 -121 14 -178q2 -14 54 -26q57 -14 67 -15q6 0 8 -22q1 -7 1 -14q0 -13 -3 -21q-55 2 -109.5 5t-78 4t-27.5 1l-22 -1q-23 -1 -75 -4t-112 -5q-8 8 -8 32.5t8 24.5q16 0 68 15q43 12 45 26q14 55 14 139v201q0 188 -47 254q-49 68 -155 68 q-63 0 -123 -47.5t-60 -83.5v-353q0 -113 17 -178q2 -14 51 -26q57 -14 68 -15q6 0 8 -22q2 -20 -2 -35q-55 2 -109.5 5t-77 4t-26.5 1t-28 -1t-79 -4t-112 -5q-9 8 -9 32.5z" />
<glyph unicode="o" horiz-adv-x="1019" d="M74 432q0 182 125 313q123 129 309 129q176 0 307 -131q129 -129 129 -311q0 -184 -125 -315t-307 -131q-180 0 -309 131q-129 133 -129 315zM246 463q0 -166 86 -283t198 -117q106 0 175 101q68 102 67 239q0 166 -86 279q-86 115 -201 115q-104 0 -171.5 -98.5 t-67.5 -235.5z" />
<glyph unicode="p" horiz-adv-x="1021" d="M35 -420q0 27 8 27q23 0 70 12q49 12 51 27q14 55 14 141v825q0 76 -28 109q-20 23 -50 33q-25 8 -47 8q-18 0 -18 4q0 47 10 49q207 31 277 53h6l4 2q6 0 6 -12q0 -16 -2 -26.5t-2 -18.5v-10q25 20 92 45q66 25 113 24q190 0 299 -129q109 -131 108 -274 q0 -193 -135 -340q-133 -145 -303 -145q-39 0 -53 2q-29 4 -41 8q-6 2 -16.5 5t-12.5 3q-4 2 -12 5l-13 5q-16 6 -20 11q-8 -8 -8 -27v-172q0 -113 16 -178q2 -14 51.5 -26.5t69.5 -12.5q2 0 6 -27q2 -18 -2 -33q-55 2 -109.5 5.5t-77 4.5t-26.5 1t-26.5 -1t-78 -4.5 t-112.5 -5.5q-8 8 -8 33zM332 197q0 -55 57 -92t127 -37q119 0 188.5 106.5t69.5 237.5q0 166 -90 266q-88 96 -211 96q-61 0 -100 -33q-41 -35 -41 -96v-448z" />
<glyph unicode="q" horiz-adv-x="976" d="M76 406q0 176 137 325.5t317 149.5q72 0 144 -13q59 -10 79.5 -10t45 8t31 8t24.5 -6t18 -14q0 -6 -8 -37q-4 -18 -16 -94q-8 -55 -8 -137v-789q0 -88 16 -153q2 -14 51 -26.5t70 -12.5q2 0 6 -25q1 -7 1 -13q0 -13 -3 -22q-55 2 -109.5 5.5t-77 4.5t-26.5 1t-26.5 -1 t-78 -4.5t-112.5 -5.5q-8 8 -8 33q0 27 8 27q23 0 70 12q49 12 51 27q14 55 14 141v248q0 8 -4 16q-2 4 -10 2q-117 -59 -193 -59q-174 0 -288.5 127t-114.5 287zM248 453q0 -180 88 -271q89 -92 215 -92q45 0 90 26.5t45 94.5v463q0 55 -49 88q-51 35 -141 35 q-88 0 -148 -64q-58 -61 -80 -135q-20 -69 -20 -145z" />
<glyph unicode="r" horiz-adv-x="759" d="M66 26.5q0 24.5 8 24.5q18 0 71 15q49 12 52 26q14 55 14 139v379q0 76 -29 109q-20 23 -49 33q-25 8 -47 8q-20 0 -20 4q0 47 12 49q207 31 276 53h4l7 2q8 0 10 -16q2 -18 0 -27l-13 -100q41 61 99 102q66 47 125 47q119 0 155 -59q0 -72 -20 -100q-23 -33 -55 -33 q-35 0 -66 35q-31 33 -82 33q-63 0 -108 -57.5t-45 -123.5v-299q0 -113 16 -178q2 -14 51 -26q57 -14 70 -15q6 0 8 -22q2 -20 -2 -35q-55 2 -109.5 5t-78 4t-27.5 1t-27.5 -1t-79 -4t-112.5 -5q-8 8 -8 32.5z" />
<glyph unicode="s" horiz-adv-x="716" d="M82 223q15 12 24 13q29 0 31 -13q12 -59 75.5 -116.5t137.5 -57.5q61 0 105 37q41 35 41 100q0 35 -13 64q-12 27 -43 51q-37 29 -53 39q-8 4 -72 39q-63 33 -67 37q-156 88 -156 215q0 109 86 176t205 67q43 0 111 -12l92 -14q20 -92 24 -205q0 -8 -26.5 -8t-28.5 12 q-8 55 -57 107q-47 51 -109 51q-143 0 -143 -119q0 -35 8 -53q9 -22 31 -43q18 -18 34 -31q18 -14 54 -33q43 -23 51 -28q2 0 8 -4.5t17.5 -10.5t21.5 -12l55 -33q14 -8 47 -35q29 -23 45 -43q12 -14 27 -47q12 -27 12 -59q0 -117 -92 -197t-215 -80q-43 0 -78 7 q-59 10 -82 16q-57 14 -73 16q-12 29 -25 101q-10 55 -10 106z" />
<glyph unicode="t" horiz-adv-x="626" d="M35 791q0 12 2 14q57 25 125 104q18 23 43 60l35 57q14 23 14 27q59 0 59 -11v-198h158h38.5h31t21.5 -1t16 -1h6q16 0 16 -19q0 -37 -20 -75h-267v-490q0 -78 41 -129q39 -47 109 -47q55 0 123 39q6 3 18 -19q11 -19 11 -21q0 -19 -93 -65q-61 -31 -129 -30 q-96 0 -166 65q-68 63 -67 189v508h-117q-8 0 -8 43z" />
<glyph unicode="u" horiz-adv-x="1032" d="M57 764q0 47 13 49q207 31 276 53h4l6 2q8 0 11 -16q2 -18 0 -27q-12 -95 -13 -147v-270q0 -156 45 -227.5t152 -71.5q55 0 113 47q55 46 55 80v374q0 76 -29 109q-20 23 -49 33q-25 8 -47 8q-20 0 -21 4q0 47 13 49q207 31 276 53h4l6 2q8 0 11 -16q2 -18 0 -27 q-12 -96 -13 -143v-399q0 -94 15 -154q2 -12 20 -20q12 -6 39 -11q29 -4 39 -4h18q6 -4 7 -22q0 -10 -4 -19q-6 -12 -13 -12q-41 -4 -65 -8q-49 -8 -70 -15l-28.5 -7t-30.5 -9q-29 -8 -45 -12l-19 -6q-14 0 -14 32v103l-4 8q-133 -141 -262 -141q-76 0 -127 37 q-53 37 -78 98q-27 66 -35 119q-10 66 -10 118v252q0 76 -29 109q-20 23 -49 33q-25 8 -47 8q-21 0 -21 4z" />
<glyph unicode="v" horiz-adv-x="985" d="M-4 835.5q0 24.5 8 32.5q59 -2 111.5 -5t74.5 -4l23 -1l199 10q4 -14 2 -32q-4 -25 -11 -25q-98 0 -98 -35q0 -6 2 -8l242 -543l201 461q16 39 16 59q0 66 -143 66q-8 0 -8.5 24.5t8.5 32.5q23 -4 82 -6q82 -4 106 -4l201 10q4 -16 4 -30q0 -27 -15 -27q-25 0 -73 -16 q-45 -14 -62 -54l-317 -716q-3 -15 -25 -31q-23 -16 -35 -17q-16 0 -18 9q-34 74 -147 344q-111 264 -201 440q-23 41 -119 41q-8 0 -8 24.5z" />
<glyph unicode="w" horiz-adv-x="1466" d="M18 835.5q0 24.5 9 32.5q10 -2 31.5 -3t33.5 -1t33.5 -1t32.5 -3q20 -2 65 -2l201 10q2 -6 2 -32q0 -25 -6 -25q-100 0 -101 -47q0 -4 25 -59l88 -189l125 -276l78 217l57 168q18 49 18.5 57t-10.5 33q-6 14 -18 39l-10 16q-12 18 -37 31q-25 10 -66 10q-8 0 -8 24.5 t8 32.5q10 -2 33 -3t33 -1t31.5 -1t31.5 -3q18 -2 66 -2q45 0 63 2q10 2 33 3t35 1t33.5 1t32.5 3q4 -16 4 -34.5t-7 -22.5q-96 0 -96 -80q0 -47 219 -491l76 223l26.5 74.5l17.5 47l11.5 31t12.5 39.5q20 61 20 84q0 72 -131 72h-8q-8 0 -8 24.5t8 32.5q10 -2 32.5 -3 t35 -1t35 -1t32.5 -3q20 -2 68 -2q41 0 57 2q8 2 27.5 3t29.5 1l64 4q4 -16 4 -30q0 -27 -10 -27q-29 0 -72 -18q-41 -18 -57 -56l-262 -714q-16 -45 -56 -46q-23 0 -24 9l-246 587l-203 -550q0 -2 -2 -7.5t-4 -9.5q-4 -6 -20 -18q-14 -10 -27 -11q-23 0 -25 9 q-23 49 -108 260q-78 188 -115 270q-53 115 -127 250q-27 45 -106 45q-9 0 -9 24.5z" />
<glyph unicode="x" horiz-adv-x="933" d="M8 23q0 29 8 28q135 23 181 84l206 279l1 2l2 4v6l-5 12l-204 301q-23 29 -74 49q-57 23 -90 23l-6 29q2 8 8 28q55 -2 105 -5t70.5 -4t23 -1t25 1t74.5 4t111 5q2 -6 2 -24q0 -33 -6 -33q-80 0 -80 -35q0 -8 11 -24l129 -201l43 61l45 68q8 12 30 51q14 27 15 43 q0 18 -25 25q-29 8 -51 8q-29 0 -33 4q-6 4 -6 31q0 18 6 26q59 -2 111.5 -5t74 -4t23.5 -1t21.5 1t64.5 4t96 5q0 -6 1.5 -12l2.5 -10t1 -6q0 -29 -7 -29q-129 -14 -174 -70l-190 -249q-4 -8 -4 -15q0 -8 6 -20l213 -318q55 -80 168 -88q6 0 6 -26q0 -23 -8 -31 q-55 2 -102.5 5t-66.5 4l-20 1q-2 0 -25.5 -1t-78.5 -4t-117 -5q0 6 -1 12t-2 9t-1 5q0 31 6 31q84 6 84 37l-4 12l-151 240l-140 -207q-12 -16 -12 -37q0 -37 98 -43q2 0 6 -1l5 -1q6 0 6 -28q0 -20 -8 -29q-55 2 -105.5 5t-71 4t-22.5 1l-21 -1q-20 -1 -69 -4t-105 -5 q-4 21 -4 29z" />
<glyph unicode="y" horiz-adv-x="907" d="M4 835.5q0 24.5 8 32.5q57 -2 111.5 -5t77 -4t26.5 -1q45 0 64 2q10 2 31.5 3t34 1t34 1t31.5 3q4 -16 4 -30q0 -27 -8 -27q-18 0 -53 -14q-39 -16 -41 -29v-4q0 -37 215 -522l151 438q14 41 15 61q0 31 -31 50q-35 20 -84 20q-8 0 -8 24.5t8 32.5l78 -6q70 -4 100 -4 q27 0 96 4l78 6q4 -16 4 -30q0 -27 -8 -27q-25 0 -72 -18q-41 -16 -57 -60l-358 -964q-47 -125 -105 -175q-59 -49 -106 -49q-39 0 -62 27q-20 23 -20 51q0 43 28 66q164 0 220 172l24 71q6 14 13.5 37t9.5 31l-287 700q-20 45 -39 68q-18 18 -55 30.5t-60 12.5 q-8 0 -8 24.5z" />
<glyph unicode="z" horiz-adv-x="827" d="M57 45q0 6 2 8l514 715l-297 2q-41 0 -65 -18q-31 -23 -37 -39q-4 -8 -16 -51q-9 -31 -13 -37q-6 -12 -47 -13q-23 0 -22 6q0 14 14 95q15 86 19 147q117 -12 190 -12h244q102 0 243 16q6 -8 7 -49l-508 -692q-14 -20 -15 -29q0 -14 25 -14h260q84 0 125 43q39 41 59 117 q4 23 17 22q43 0 57 -24l-41 -238h-674q-41 25 -41 45z" />
<glyph unicode="{" horiz-adv-x="647" d="M127 621q0 27 6 36q70 18 90 27q33 12 62 45q29 31 28 82q0 53 -49 164q-51 115 -51 176q0 164 92 256t227 92q8 0 9 -14q0 -39 -23 -43q-57 -2 -129 -66q-70 -61 -70 -149q0 -68 52 -183q49 -111 49 -198q0 -92 -55.5 -160t-112.5 -70q61 -2 115 -65q55 -63 55 -158 q0 -86 -51.5 -186.5t-51.5 -169.5q0 -90 72 -158q72 -70 127 -72q23 -4 23 -43q0 -14 -9 -14q-133 0 -223 103q-92 104 -92 258q0 61 49 168q47 102 47 159q0 27 -8 45q-10 25 -16 33q-10 14 -35 25l-23.5 10t-13.5 6q-37 12 -45 14q-39 10 -41 13q-4 8 -4 37z" />
<glyph unicode="|" horiz-adv-x="526" d="M201 -229v1742q-4 12 10 17q45 14 98 14q16 0 17 -12l2 -1745q0 -8 -53.5 -20.5t-63.5 -12t-10 16.5z" />
<glyph unicode="}" horiz-adv-x="649" d="M109 -236q0 41 20 43q55 2 127 72q72 68 72 158q0 70 -51.5 170t-51.5 186q0 94 56 158q53 63 114 65q-57 2 -112.5 70t-55.5 160q0 84 52 198q49 111 49 183q0 88 -70 149q-72 63 -129 66q-20 2 -20 43q0 14 8 14q133 0 225 -92t92 -256q0 -66 -49 -176 q-51 -115 -51 -164t31 -82q29 -33 61 -45q25 -10 88 -27q8 -14 8 -36q0 -25 -6 -37q-2 0 -13 -3t-22 -8q-31 -10 -39 -12q-10 -2 -32 -12q-22 -9 -31 -19q-2 -2 -10.5 -9t-12.5 -11q-8 -8 -16 -33q-6 -18 -6 -39q0 -53 49 -159q47 -102 47 -168q0 -154 -92 -258 q-90 -102 -221 -103q-8 0 -8 14z" />
<glyph unicode="~" horiz-adv-x="1150" d="M113 553q0 43 47 78q61 46 104 61q45 16 109 17q92 0 235.5 -53.5t235.5 -53.5q18 0 28 2q4 0 12.5 1t12.5 3l10 5t13 5l20 11q12 6 23 14q8 6 13 11q3 3 5 3q2 2 23 17q12 8 20 16q18 -10 18 -35q0 -43 -47 -77q-59 -45 -102 -61.5t-107 -16.5q-92 0 -235 53t-240 53 q-33 0 -71 -16q-23 -10 -52 -27q-23 -14 -59 -45q-16 8 -16 35z" />
<glyph unicode="&#xa1;" horiz-adv-x="331" d="M49 745q0 49 35 84t80 35q47 0 82 -34.5t35 -84.5q0 -45 -35 -79q-33 -33 -82 -33q-47 0 -80 33q-35 34 -35 79zM70 -322q0 10 10 107q2 14 22 274l29 414q4 31 10 41q8 12 39 27q10 4 17 -11q8 -20 10 -34q14 -258 31 -451q4 -51 8 -109.5t7 -94.5t5 -54q6 -68 6 -109 q0 -49 -28.5 -88t-75.5 -39q-45 0 -68 37q-22 39 -22 90z" />
<glyph unicode="&#xa2;" horiz-adv-x="927" d="M121 422q0 -209 110.5 -323.5t284.5 -114.5q158 0 295 149q12 12 12 37q0 8 -2 12l-6 13l-4 4l-4 -3q-4 -3 -8 -8q-29 -20 -31 -22q-8 -4 -23.5 -14.5l-21.5 -14.5q-18 -12 -66 -22q-45 -10 -79 -11q-151 0 -228 111q-78 113 -78 274q0 160 65.5 236t149.5 76 q41 0 78 -17q39 -18 51 -32l12.5 -12.5t12.5 -14.5t21 -25q8 -8 12 -14q6 -8 8 -12l10 -10l10 -11l9 -8q8 -4 10 -6t8 -2h10q72 0 72 125q-31 53 -117 82q-82 27 -186 26q-170 0 -278.5 -137t-108.5 -311zM391 -72l166 1020q72 0 72 -16l-166 -1022q-72 0 -72 18z" />
<glyph unicode="&#xa3;" horiz-adv-x="944" d="M90 584q0 37 12 55h535q8 0 8 -21q0 -41 -29 -61h-516q-10 0 -10 27zM92 20q18 34 49 80q33 45 45 64q8 12 15 37q4 14 8 47q0 8 1 24.5t3 24.5q4 29 4 53v51v52v45q0 35 -8 166t-8 182q0 190 100 305q102 119 262 119q106 0 156 -74q0 -119 -62 -119q-43 0 -86 56 q-41 53 -86 53q-47 0 -79.5 -26.5t-45.5 -74.5q-14 -55 -16 -92q-4 -57 -4 -104q0 -57 8 -202.5t8 -170.5q0 -197 -90 -348q45 18 144 18q49 0 168 -32q111 -31 147 -31q29 0 47 16q29 25 37 37q4 6 8 13.5l10.5 19.5t10.5 20q4 10 10 19.5l9 14.5t3 7q12 0 24.5 -12 t12.5 -25v-18q-88 -231 -235 -231q-66 0 -201 36.5t-180 36.5q-74 0 -152 -75q-16 0 -26.5 14t-10.5 24z" />
<glyph unicode="&#xa4;" horiz-adv-x="935" d="M47 307l109 103q-59 92 -60 204q0 131 76 232l-104 112q-8 8 4 25q10 14 37 35q23 16 47 22l104 -110q88 61 205 61q127 0 223 -82l119 111q8 8 24 -4q12 -8 33 -35q18 -25 25 -49l-121 -113q57 -94 57 -205q0 -117 -65 -217l108 -114q8 -8 -4 -27q-6 -10 -37 -33 q-20 -16 -47 -22l-104 108q-94 -70 -211 -69q-129 0 -229 79l-107 -100q-8 -8 -25 4q-10 6 -32 37q-19 27 -25 47zM242 639q0 -135 71.5 -235.5t165.5 -100.5q86 0 146 84q57 82 57 201q0 135 -72 237q-70 100 -164 101q-89 0 -147 -86q-57 -84 -57 -201z" />
<glyph unicode="&#xa5;" horiz-adv-x="1314" d="M45 1251q0 25 8 33q8 0 44 -2t63 -4q74 -6 127 -6q16 0 250 12q2 -6 2 -31q0 -23 -7 -22q-33 0 -75 -17q-41 -16 -41 -49q0 -23 20 -57l217 -412q10 -12 21 4q264 399 264 467q0 20 -39 43q-35 20 -94 21q-8 0 -8 22.5t8 30.5q6 0 32.5 -2t49.5 -4q61 -6 100 -6 q43 0 277 12q4 -16 4 -31q0 -23 -8 -22q-27 0 -96.5 -18.5t-90.5 -41.5q-68 -104 -219 -356q-133 -223 -133 -252v-55h182q10 0 10 -27q0 -31 -12 -49h-180v-80h182q10 0 10 -26q0 -31 -12 -50h-180q0 -139 12 -184q2 -12 53 -29q53 -16 66 -16q8 0 8 -22q0 -14 -4 -31 q-51 2 -107.5 5t-80 4t-29.5 1q-2 0 -26.5 -1t-81 -4t-119.5 -5q-8 8 -9 26q0 27 9 27q29 0 71 14q47 16 54 31q16 66 16 184h-184q-10 0 -11 25q0 33 13 51h182v80h-184q-10 0 -11 27q0 31 13 49h182q0 31 -2 33q-8 35 -283 524q-33 63 -86 123q-18 18 -61 30.5t-68 12.5 q-8 0 -8 20z" />
<glyph unicode="&#xa6;" horiz-adv-x="272" d="M74 -229v727q-4 12 10 16q45 14 98 14q16 0 17 -12l2 -729l-6 -4q-6 -6 -11 -8l-28 -8q-27 -8 -60 -11q-2 0 -4 -1t-4 -1h-4q-10 1 -10 17zM74 768v4v6v727q-4 12 10 17q45 14 98 14q16 0 17 -12l2 -729l-4 -4l-7 -7q-2 -2 -14 -6q-9 -3 -31 -6q-4 0 -20 -3t-29 -5h-16 q-6 0 -6 4z" />
<glyph unicode="&#xa7;" horiz-adv-x="763" d="M51 690q0 164 119 248q-29 51 -29 98q0 129 84 197q86 70 209 70q127 0 176 -72v-14q0 -4 1 -9l1 -4q0 -90 -61 -90q-29 0 -82 53q-55 55 -100 56q-47 0 -86 -33q-37 -31 -37 -96q0 -70 49 -119q51 -51 115 -80q68 -31 135 -68q66 -35 114 -112q49 -76 50 -189 q0 -162 -119 -245q29 -63 28 -101q0 -74 -28 -131q-25 -49 -76 -80q-43 -27 -92 -39q-45 -12 -96 -12q-132 0 -179 68v14q0 4 -1 9l-1 5q0 90 66 90q23 0 80 -53t100 -53q57 0 90 32.5t33 94.5q0 74 -47 121q-49 49 -117 80q-90 41 -135 65q-61 35 -115 113q-49 73 -49 186z M143 766q0 -78 52 -135q47 -53 116 -86q59 -29 142 -84q70 -47 110 -115l8 8l9 8l8 9q2 2 5 6l3 4q2 2 6 10l6 12l4 13q2 6 2 16q0 2 1 8t1 11q0 78 -51 135t-116 88q-78 37 -142 82q-72 51 -110 114q-54 -43 -54 -104z" />
<glyph unicode="&#xa8;" horiz-adv-x="665" d="M53 1034q0 41 33 70t70 29q41 0 69 -31q29 -33 29 -70q0 -40 -31 -67q-33 -29 -69.5 -29t-69.5 29q-31 26 -31 69zM420 1034q0 43 31 70q33 29 71 29q43 0 70 -31q29 -33 29 -70q0 -40 -31 -67q-33 -29 -70 -29t-69 29q-31 26 -31 69z" />
<glyph unicode="&#xa9;" horiz-adv-x="1204" d="M55 684q0 225 160 385q162 162 387 162t387 -162t162 -385t-162 -385t-387 -162t-387 162q-160 160 -160 385zM123 684q0 -203 139 -342q141 -141 342 -141t342 141t141 342t-141 342t-342 141t-342 -141q-139 -139 -139 -342zM317 672q0 123 80 209t203 86 q117 0 223 -39q6 -20 11.5 -41t9.5 -33t7 -23.5t4 -16.5t1 -7q0 -18 -33 -19l-12 5q-2 16 -18.5 38.5t-59.5 42.5q-49 23 -108 23q-82 0 -137.5 -61.5t-55.5 -145.5q0 -113 66 -174q63 -61 143 -61q102 0 145 37q10 10 17 26q2 6 8 29q2 10 4 10q39 0 41 -4q0 -6 -16 -66 q-16 -57 -25 -59q-100 -39 -211 -39q-123 0 -205 82t-82 201z" />
<glyph unicode="&#xaa;" horiz-adv-x="630" d="M55 635q0 29 17 57q14 27 37 45q16 14 57 35q51 27 59 29l68 22q45 16 57 18.5t12 20.5v117q0 37 -26 57q-29 23 -68 23q-41 0 -69 -29q-27 -27 -27 -74q0 -45 -68 -45q-43 0 -43 23q0 61 86 119q88 59 172 59t119 -35q33 -33 33 -108v-332q0 -29 14 -49q16 -23 39 -23 q12 0 25 6q4 2 10 6.5t8 4.5l6 4q6 -3 7 -6q0 -4 -3.5 -14.5t-5.5 -18.5q-66 -47 -96 -47q-33 0 -59 26q-31 31 -39 56l-19 -15l-36 -28q-20 -14 -54 -27q-39 -14 -63 -14q-61 0 -107 34q-43 33 -43 103zM176 655q0 -35 23 -57q20 -20 57 -20q39 0 72 24q35 25 34 45v137 q-15 -6 -55 -18q-18 -6 -63 -23q-20 -8 -45 -32q-23 -23 -23 -56z" />
<glyph unicode="&#xab;" horiz-adv-x="937" d="M53 481q0 35 17 56q258 156 411 309q47 -12 47 -37q0 -14 -18 -33l-104 -100l-95 -96l-82 -86l174 -181q20 -20 41 -38.5t31 -28.5l10.5 -10.5t10.5 -12.5q6 -6 10 -9t6 -5q6 -6 8 -10l4 -9q0 -2 1 -4t1 -4q0 -8 -6 -14q-8 -8 -12 -10t-16 -6q-9 -3 -13 -7q-14 14 -39 37 q-33 29 -139 111q-117 88 -233 162q-15 6 -15 26zM412 481q0 35 16 56q258 156 412 309q47 -12 47 -37q0 -14 -19 -33l-104 -100l-94 -96l-82 -86l174 -181q20 -20 40.5 -38.5l31.5 -28.5q6 -4 10 -10.5t10 -12.5l14 -14q10 -10 11 -10l4 -9q0 -2 1 -4t1 -4q0 -8 -6 -14 q-8 -8 -12.5 -10t-16.5 -6q-9 -3 -12 -7q-14 14 -39 37q-33 29 -140 111q-117 88 -233 162q-14 6 -14 26z" />
<glyph unicode="&#xac;" horiz-adv-x="1075" d="M57 748q9 92 31 92h889q23 0 22 -23v-479q-22 -22 -98 -31h-6l-14 15v387q0 18 -23 18h-788q-13 1 -13 21z" />
<glyph unicode="&#xad;" horiz-adv-x="749" d="M117 420q0 102 22 102h2l484 25h2q12 0 12 -19q0 -94 -27 -108l-483 -23h-2q-3 0 -6 6q-4 9 -4 17z" />
<glyph unicode="&#xae;" horiz-adv-x="1206" d="M57 813q0 227 160 387t387 160t387 -160t160 -387t-160 -387t-387 -160t-387 160t-160 387zM125 813q0 -203 139 -342q141 -141 342 -141t342.5 141t141.5 342t-141.5 342t-342 141t-342.5 -141q-139 -139 -139 -342zM350 559q0 10 4 10q9 0 31 6.5t25 12.5q6 18 6 51 l-2 31v311q2 10 2 31q0 33 -6 51q-4 6 -23 12q-22 6 -31 6q-2 0 -2 11q0 12 2 14q37 -6 97 -6q8 0 73.5 4t73.5 4q61 0 127 -39q61 -37 61 -115q0 -84 -96 -127q-2 0 -2 -4q0 -25 139 -209q31 -43 80 -43q2 -2 2 -12q0 -14 -28 -14q-92 0 -146 43q-47 39 -151 209 q-8 14 -29 14q-14 2 -35 0q-4 0 -4 -12v-129q4 -66 8 -82q4 -6 23 -13q20 -6 29 -6q4 0 4 -10t-2 -12q-23 2 -125 2q-74 0 -101 -2q-4 4 -4 12zM518 883q0 -27 94 -27q27 0 51.5 26.5t24.5 65.5q0 111 -100 111q-43 0 -62 -6q-6 0 -6 -6l-2 -74v-90z" />
<glyph unicode="&#xaf;" horiz-adv-x="919" d="M1079 1118q0 74 25 74h416q10 0 10 -14q0 -20 -12 -64q-2 -10 -15 -14h-411l-9 4q-4 8 -4 14z" />
<glyph unicode="&#xb0;" horiz-adv-x="464" d="M37 1071q0 82 57.5 139.5t139 57.5t139 -57.5t57.5 -139.5t-57.5 -139.5t-139.5 -57.5q-80 0 -139 60q-57 57 -57 137zM111 1071q0 -51 36 -88q35 -35 86.5 -35t85.5 35q37 37 37 88q0 55 -37 88q-39 35 -86 35q-51 0 -88 -37q-34 -35 -34 -86z" />
<glyph unicode="&#xb1;" horiz-adv-x="1064" d="M55 629q0 23 17 82q2 10 14 10h383q8 0 8 10v381q-4 10 10 14q59 16 82 17l21 -13v-401q0 -8 8 -8h399q16 0 17 -10q0 -20 -21 -90q0 -2 -1 -5.5t-3 -5.5t-6 -2h-2h-383q-8 0 -8 -6v-385q0 -18 -90 -31l-2 -1q-2 -1 -4 -1h-7q-10 0 -10 17v397q0 10 -10 10h-399 q-13 1 -13 21zM57 39q6 41 17 76q2 10 14 10h893h6q2 0 8 -6t2 -17q-2 -10 -5 -28l-3 -19l-8 -24l-4 -13q-2 -2 -3 -2q-3 0 -3 -2l-4 -2h-897h-4q-3 0 -7 6q-4 11 -2 21z" />
<glyph unicode="&#xb2;" horiz-adv-x="675" d="M53 551q0 8 8 22q16 18 62 66l72 78l65 74q43 49 64 77q25 33 49 70q23 33 37 70q12 31 12 57q0 45 -33 84t-90 39q-80 0 -147 -82q-4 -4 -14.5 4t-20.5 25q-8 14 -8 20q0 8 2 10q43 55 108 90q74 39 137 39q90 0 156 -61q63 -61 63 -150q0 -53 -18 -102q-16 -45 -63 -98 q-55 -63 -76 -82l-101 -88l-94 -78q-2 -2 -2 -8t4 -6h275q41 0 55 10q18 12 25 37l6 24q4 4 10 6q18 0 29 -12q-9 -22 -43 -178l-250 2l-254 -2q-25 12 -25 43z" />
<glyph unicode="&#xb3;" horiz-adv-x="630" d="M53 547v12q0 31 16.5 53.5t41.5 22.5q27 0 71.5 -35t75.5 -35q72 0 123 45q53 47 53 131q0 72 -37 109q-39 39 -94 39q-10 0 -102 -12q-18 18 -19 36q0 16 19 23q78 14 131 59q53 43 53 113q0 39 -33 61.5t-71.5 22.5t-69.5 -18q-27 -14 -49 -39q-18 -18 -29 -19 q-8 0 -18 35q-8 33 -9 35q90 109 242 108q57 0 112.5 -43t55.5 -112q0 -43 -20 -76q-22 -34 -43 -49l-68 -45q55 0 122.5 -55.5t67.5 -143.5q0 -127 -106 -201q-111 -76 -250 -75q-55 0 -104 18q-52 19 -62 35z" />
<glyph unicode="&#xb4;" horiz-adv-x="919" d="M1012 1079q0 6 30 58q35 59 76 116q49 70 80 103q18 18 68 18q35 0 53 -10t24 -21q4 -6 5 -18q0 -49 -143.5 -159.5t-168 -111t-24.5 24.5z" />
<glyph unicode="&#xb5;" horiz-adv-x="1017" d="M137 -381q0 16 15 361q12 283 28 428q0 2 -4 96q0 18 -1 39.5t-2 34t-1 18.5v238q25 41 47 40q18 0 64 -28q43 -27 43 -45q0 -98 -45 -309l-11 -46q0 -125 27 -225q25 -94 76 -94q90 0 164 98q70 94 118 230v141v238q25 41 50 40q16 0 61 -28.5t45 -44.5q0 -90 -47 -309 l-10 -46q-3 -313 116 -313q35 0 68 21q29 18 45 41q8 0 21 -21q6 -12 6 -22q-23 -70 -72 -113q-53 -47 -115 -47q-41 0 -73 45q-31 45 -43 90q-6 29 -23 129q-117 -274 -299 -274q-10 0 -27 4q-14 4 -22 10q-16 12 -19 14q-10 10 -16 21q-12 20 -14 22q-4 4 -13 27 q-6 18 -8 22q0 2 -1 4.5t-3 8.5t-6 14q-8 18 -8 23l1 -12q1 -11 2 -37.5t1 -57.5q4 -150 10 -229q8 -125 31 -230q-25 -41 -49 -41q-16 0 -61.5 29t-45.5 45z" />
<glyph unicode="&#xb6;" horiz-adv-x="991" d="M92 938q0 156 107 260q111 106 235 107q41 0 110.5 -4.5t110.5 -4.5l228 11q8 -8 8 -33q0 -27 -8 -27q-33 0 -72 -10q-45 -12 -51 -29q-6 -22 -6 -209q0 -20 1 -80.5t1 -101.5v-117q0 -12 10 -8l86 17q8 -14 8 -27q-2 -39 -41 -49l-51 -15q-10 -6 -10 -10q0 -469 14 -518 q6 -15 55 -31q45 -14 72 -14q8 0 8 -22.5t-8 -30.5l-143 8q-72 4 -178 4q-53 0 -80 -2q-14 -2 -43 -3t-43 -1l-72 -6q-2 6 -2 31q0 23 6 22q14 0 67.5 16.5t55.5 28.5q8 39 8 277v200q0 14 -39 15q-160 0 -252 116.5t-92 239.5zM567 571l4 -473q0 -27 50 -26q12 0 26 10 q12 9 12 18q8 80 9 490q0 8 -9 8q-4 0 -10 -2q-2 0 -6 -1t-10 -2t-10 -1q-12 -2 -41 -6q-15 -3 -15 -15zM567 676q0 -12 17 -12l73 12q10 0 11 12q0 442 -4 512q0 4 -17 14q-14 8 -29 9q-47 0 -47 -25q-4 -426 -4 -522z" />
<glyph unicode="&#xb7;" horiz-adv-x="405" d="M94 528q0 49 33 82t84 33q49 0 82 -32.5t33 -82.5q0 -51 -33 -84q-35 -35 -82 -34q-49 0 -84 34q-33 33 -33 84z" />
<glyph unicode="&#xb8;" horiz-adv-x="919" d="M1237 -258q0 10 8 18q10 10 19 11q10 0 34 -15q20 -12 39 -12q43 0 64 18q23 18 22 48q0 35 -18.5 51t-43 16t-50.5 -12q-6 0 -15 8q-10 10 -6 16l33 50q8 10 14 21l10.5 19.5l6.5 12.5h43l-37 -45h49q37 0 64 -31q25 -28 24 -68q0 -70 -53 -110.5t-133 -40.5 q-47 0 -70 16q0 6 -2 12.5t-2 16.5z" />
<glyph unicode="&#xb9;" horiz-adv-x="542" d="M47 1141q0 10 6 14q55 20 168 78q98 49 105 53l28 19h4q8 0 25 -48q-18 -82 -18 -161v-416q0 -55 16 -94q2 -8 45 -19q45 -10 55 -10q8 0 8 -31q0 -18 -2 -20q-2 0 -88 4q-43 2 -106 2q-70 0 -113 -2q-86 -4 -88 -4q-8 2 -8 26q0 23 8 23q18 0 66 10q45 10 47 19 q10 27 10 61v391q0 66 -8 82q-10 20 -29 21q-16 0 -102 -31q-2 0 -6 2l-9 4l-6 6q-4 4 -6 8.5t-2 12.5z" />
<glyph unicode="&#xba;" horiz-adv-x="739" d="M57 799q0 127 93 219q90 90 225 90q129 0 217 -92q90 -94 90 -217q0 -127 -88 -215q-90 -90 -219 -90t-223.5 90t-94.5 215zM197 821q0 -111 51 -194.5t141 -83.5q78 0 117 71.5t39 167.5q0 109 -47 193t-138 84q-78 0 -120 -72q-43 -71 -43 -166z" />
<glyph unicode="&#xbb;" horiz-adv-x="940" d="M53 809q0 8 6 14q8 8 13 11q2 0 6 3t10 5q6 4 12 4q158 -158 410 -309q18 -22 18 -56q0 -20 -16 -26q-96 -61 -213 -148q-96 -72 -137 -106q-47 -41 -60 -56q-47 12 -47 37q0 2 1 4t1 4.5t4 10.5l11 10q2 2 5 6t9 10q4 6 10 10.5t13 10.5q8 6 30 28l37 37l174 181l-82 86 l-94 96q-98 94 -104 102q-17 21 -17 31zM412 809q0 8 6 14q8 8 12 11q2 0 6 3t10 5q6 4 13 4q156 -156 411 -309q16 -20 17 -56q0 -20 -15 -26q-66 -41 -213 -148q-106 -76 -141 -106q-39 -33 -57 -56q-47 12 -47 37q0 4 4 13q6 12 10 16q12 12 21 18l13 12.5l23 22.5l52 49 l174 181l-82 86l-94 96q-119 115 -121 125l-1 3q-1 3 -1 5z" />
<glyph unicode="&#xbc;" horiz-adv-x="1339" d="M45 1112q0 12 21 18q2 0 94 46q78 37 174 100h6q8 0 22 -47q-18 -82 -18 -162v-391q0 -55 16 -94q4 -10 46 -21q35 -8 57 -8q8 0 8 -31q0 -18 -2 -20q-2 0 -84 4q-41 2 -104 2q-66 0 -107 -2q-82 -4 -86 -4q-8 2 -8 26q0 23 8 23q27 0 62 8q39 8 43 21q12 31 12 61v367 q0 45 -6 67q-8 27 -11 29q-6 6 -18 6q-10 0 -96 -31l-2 1q-2 1 -4 3l-9 4q-2 0 -6 5q-2 2 -6 10q-2 4 -2 10zM338 20l696 1264q3 6 13 6q29 0 59 -35q8 -8 6 -20l-696 -1264q0 -4 -8 -4q-35 0 -68 39zM731 283l393 497q12 16 45 17q35 0 35 -17v-454q0 -8 10 -9h54 q12 0 18 -14q6 -15 6 -61q0 -2 -4 -6.5t-6 -4.5l-2 -2l-70 -2q-6 0 -6 -10v-217q-10 -10 -57 -10q-45 0 -55 2q-14 2 -21 6q-4 2 -4 10v215q-2 6 -10 6h-299q-23 29 -27 54zM850 332q-6 -4 4 -15q2 -2 4 -2h197q12 0 12 11v258q-2 8 -10 8l-111 -137q-73 -96 -96 -123z" />
<glyph unicode="&#xbd;" horiz-adv-x="1441" d="M45 1112q0 12 21 18q2 0 94 46q78 37 174 100h6q8 0 22 -47q-18 -82 -18 -162v-391q0 -55 16 -94q4 -10 46 -21q35 -8 57 -8q8 0 8 -31q0 -18 -2 -20q-2 0 -84 4q-41 2 -104 2q-66 0 -107 -2q-82 -4 -86 -4q-8 2 -8 26q0 23 8 23q27 0 62 8q39 8 43 21q12 31 12 61v367 q0 45 -6 67q-8 27 -11 29q-6 6 -18 6q-10 0 -96 -31l-2 1q-2 1 -4 3l-9 4q-2 0 -6 5q-2 2 -6 10q-2 4 -2 10zM338 23l696 1263q4 4 10 4q12 0 39 -16q31 -18 31 -31q0 -2 -1 -3l-1 -3l-696 -1266q0 -4 -8 -4q-35 0 -68 39q-6 11 -2 17zM827 43q0 10 7 23q2 2 61 65 q18 18 42 45t30 33q10 10 25.5 29.5t37.5 44.5q47 55 66 79l47 70q25 35 39 72q10 25 10 53q0 45 -33 84t-90 39q-33 0 -78 -23q-41 -20 -67 -57q-2 -6 -17 -2q-8 2 -12 10q-15 46 -12 49q41 53 108 91q72 39 135 38q90 0 156 -61q63 -61 64 -150q0 -53 -19 -102 q-16 -45 -63 -98q-43 -49 -76 -82q-10 -10 -101 -88l-92 -78q-2 -2 -2 -8t4 -6h263q37 0 57 20q25 25 29 41q6 23 8 23q29 0 41 -17q-10 -39 -41 -180h-504q-23 12 -23 43z" />
<glyph unicode="&#xbe;" horiz-adv-x="1386" d="M49 547v12q0 31 18.5 53.5t41.5 22.5q25 0 69.5 -35t75.5 -35q72 0 125 45t53 131q0 72 -37 109q-39 39 -96 39q-4 0 -100 -12q-18 18 -19 36q0 16 19 23q78 14 131 59q51 43 51 113q0 39 -31 61q-33 23 -71.5 23t-69.5 -18.5t-51 -38.5q-18 -18 -29 -19q-8 0 -18 33 q-9 31 -7 37q90 109 242 108q57 0 112.5 -43t55.5 -112q0 -41 -22 -76q-22 -34 -43 -49q-31 -23 -68 -45q55 0 122.5 -55.5t67.5 -143.5q0 -127 -106 -201q-111 -76 -250 -75q-55 0 -104 18q-52 19 -62 35zM385 14v6l696 1264q4 6 11 6q31 0 61 -35q8 -8 6 -20l-694 -1264 q0 -4 -8 -4q-23 0 -47.5 18.5t-24.5 28.5zM780 283l391 497q12 16 48 17q33 0 32 -17v-454q0 -8 11 -9h55q12 0 18 -14q4 -10 4 -61q0 -4 -2 -6q-4 -4 -6 -5l-4 -2l-70 -2q-6 0 -6 -10v-217q-10 -10 -57 -10q-43 0 -53 2q-16 4 -23 6q-4 2 -4 10v215q-4 6 -10 6h-297 q-23 29 -27 54zM897 332q-4 -4 4 -15q2 -2 4 -2h197q12 0 12 11v258q-2 8 -10 8l-111 -137q-73 -96 -96 -123z" />
<glyph unicode="&#xbf;" horiz-adv-x="618" d="M47 -82q0 106 45 172q47 68 158 133q39 23 94 68q53 43 62 57q20 35 20 137q0 27 41 27q25 0 25 -16q0 -4 1 -35t1 -58v-96q0 -31 -2 -45q-2 -20 -13 -39q-4 -6 -8 -18t-4 -15q-6 -16 -21 -30q-12 -12 -20 -25q-2 -2 -27 -20q-22 -15 -24 -19l-4 -3q-4 -3 -11.5 -7 t-13.5 -8q-23 -16 -24 -17q-27 -18 -44.5 -28t-25.5 -17q-25 -16 -51 -39q-25 -18 -41 -49q-12 -23 -13 -49q0 -84 50 -131q51 -47 110 -47q49 0 99 8q37 6 57 6q35 0 61 -16q31 -18 31 -63.5t-14 -67.5q-39 -20 -101 -21q-71 0 -159 43q-90 43 -160 131q-74 93 -74 197z M336 741q0 49 35 84t82 35t82 -35q33 -33 32 -84q0 -47 -32.5 -79.5t-82 -32.5t-81.5 33q-35 34 -35 79z" />
<glyph unicode="&#xc0;" d="M41 25q0 27 6 26q23 0 64 10q35 8 51 29q43 55 94 189l348 892q6 18 10 33q2 8 7.5 18.5t5.5 14.5q2 8 12 29l12 24q4 6 16.5 18.5t18.5 14.5q8 2 27 2l16 -4l401 -1057q41 -106 58 -143q12 -31 61 -49q55 -20 74 -21q8 0 8 -37q0 -4 -4 -20q-53 2 -109.5 5t-80 4 t-29.5 1l-25 -1q-25 -1 -82 -4t-124 -5q-8 8 -8.5 32.5t10.5 24.5q18 0 59 10q37 8 43 27q2 10 2 33q0 27 -6 59q-4 20 -14 58l-7 20l-82 225q-6 8 -12 9q-76 6 -151 6q-86 0 -254 -11l-11 -6l-86 -219q-35 -104 -34 -137q0 -29 16 -41t57 -23q45 -10 60 -10q6 0 6 -22 q0 -29 -2 -35q-57 2 -109.5 5t-74 4t-23.5 1q-49 0 -70 -2q-10 -2 -32.5 -3t-34.5 -1l-72 -4q-6 6 -6 31zM403 1663q0 20 27 41q25 18 78 18q25 0 37 -6q39 -29 145 -131q92 -90 92 -102q0 -27 -20 -27q-39 0 -199 80t-160 127zM494 606q0 -8 4 -8q139 -4 141 -4q86 0 182 6 l6 10l-161 443z" />
<glyph unicode="&#xc1;" d="M41 25q0 27 6 26q23 0 64 10q35 8 51 29q43 55 94 189l348 892q6 18 10 33q2 8 7.5 18.5t5.5 14.5q2 8 12 29l12 24q4 6 16.5 18.5t18.5 14.5q8 2 27 2l16 -4l401 -1057q41 -106 58 -143q12 -31 61 -49q55 -20 74 -21q8 0 8 -37q0 -4 -4 -20q-53 2 -109.5 5t-80 4 t-29.5 1l-25 -1q-25 -1 -82 -4t-124 -5q-8 8 -8.5 32.5t10.5 24.5q18 0 59 10q37 8 43 27q2 10 2 33q0 27 -6 59q-4 20 -14 58l-7 20l-82 225q-6 8 -12 9q-76 6 -151 6q-86 0 -254 -11l-11 -6l-86 -219q-35 -104 -34 -137q0 -29 16 -41t57 -23q45 -10 60 -10q6 0 6 -22 q0 -29 -2 -35q-57 2 -109.5 5t-74 4t-23.5 1q-49 0 -70 -2q-10 -2 -32.5 -3t-34.5 -1l-72 -4q-6 6 -6 31zM494 606q0 -8 4 -8q139 -4 141 -4q86 0 182 6l6 10l-161 443zM602 1483q0 12 92 102q106 102 146 131q12 6 37 6q53 0 77 -18q27 -20 27 -41q0 -45 -162 -127 q-160 -80 -196 -80q-21 0 -21 27z" />
<glyph unicode="&#xc2;" d="M41 25q0 27 6 26q23 0 64 10q35 8 51 29q43 55 94 189l348 892q6 18 10 33q2 8 7.5 18.5t5.5 14.5q2 8 12 29l12 24q4 6 16.5 18.5t18.5 14.5q8 2 27 2l16 -4l401 -1057q41 -106 58 -143q12 -31 61 -49q55 -20 74 -21q8 0 8 -37q0 -4 -4 -20q-53 2 -109.5 5t-80 4 t-29.5 1l-25 -1q-25 -1 -82 -4t-124 -5q-8 8 -8.5 32.5t10.5 24.5q18 0 59 10q37 8 43 27q2 10 2 33q0 27 -6 59q-4 20 -14 58l-7 20l-82 225q-6 8 -12 9q-76 6 -151 6q-86 0 -254 -11l-11 -6l-86 -219q-35 -104 -34 -137q0 -29 16 -41t57 -23q45 -10 60 -10q6 0 6 -22 q0 -29 -2 -35q-57 2 -109.5 5t-74 4t-23.5 1q-49 0 -70 -2q-10 -2 -32.5 -3t-34.5 -1l-72 -4q-6 6 -6 31zM483 1436q2 2 8.5 8l18.5 17.5t25 21.5l71 65q57 55 84 92q16 16 21 17q10 0 20 -17q51 -63 82 -96l57 -51l50 -41q18 -14 18 -16q0 -39 -18 -39q-39 0 -209 114 q-47 -35 -119 -75q-70 -39 -88 -39q-21 0 -21 39zM494 606q0 -8 4 -8q139 -4 141 -4q86 0 182 6l6 10l-161 443z" />
<glyph unicode="&#xc3;" d="M41 25q0 27 6 26q23 0 64 10q35 8 51 29q43 55 94 189l348 892q6 18 10 33q2 8 7.5 18.5t5.5 14.5q2 8 12 29l12 24q4 6 16.5 18.5t18.5 14.5q8 2 27 2l16 -4l401 -1057q41 -106 58 -143q12 -31 61 -49q55 -20 74 -21q8 0 8 -37q0 -4 -4 -20q-53 2 -109.5 5t-80 4 t-29.5 1l-25 -1q-25 -1 -82 -4t-124 -5q-8 8 -8.5 32.5t10.5 24.5q18 0 59 10q37 8 43 27q2 10 2 33q0 27 -6 59q-4 20 -14 58l-7 20l-82 225q-6 8 -12 9q-76 6 -151 6q-86 0 -254 -11l-11 -6l-86 -219q-35 -104 -34 -137q0 -29 16 -41t57 -23q45 -10 60 -10q6 0 6 -22 q0 -29 -2 -35q-57 2 -109.5 5t-74 4t-23.5 1q-49 0 -70 -2q-10 -2 -32.5 -3t-34.5 -1l-72 -4q-6 6 -6 31zM436 1477q0 55 56 98q53 41 100 41q57 0 137 -41q82 -43 139 -43q72 0 103 67q2 2 10 3q18 0 18 -31q0 -55 -55 -98t-100 -43q-58 0 -142 43t-139 43q-66 0 -96 -70 q-2 -2 -12 -2q-19 0 -19 33zM494 606q0 -8 4 -8q139 -4 141 -4q86 0 182 6l6 10l-161 443z" />
<glyph unicode="&#xc4;" d="M41 25q0 27 6 26q23 0 64 10q35 8 51 29q43 55 94 189l348 892q6 18 10 33q2 8 7.5 18.5t5.5 14.5q2 8 12 29l12 24q4 6 16.5 18.5t18.5 14.5q8 2 27 2l16 -4l401 -1057q41 -106 58 -143q12 -31 61 -49q55 -20 74 -21q8 0 8 -37q0 -4 -4 -20q-53 2 -109.5 5t-80 4 t-29.5 1l-25 -1q-25 -1 -82 -4t-124 -5q-8 8 -8.5 32.5t10.5 24.5q18 0 59 10q37 8 43 27q2 10 2 33q0 27 -6 59q-4 20 -14 58l-7 20l-82 225q-6 8 -12 9q-76 6 -151 6q-86 0 -254 -11l-11 -6l-86 -219q-35 -104 -34 -137q0 -29 16 -41t57 -23q45 -10 60 -10q6 0 6 -22 q0 -29 -2 -35q-57 2 -109.5 5t-74 4t-23.5 1q-49 0 -70 -2q-10 -2 -32.5 -3t-34.5 -1l-72 -4q-6 6 -6 31zM434 1556q0 41 29 70q31 31 72 31q39 0 69.5 -31t30.5 -70q0 -41 -31 -71q-29 -29 -69 -29q-43 0 -72 28.5t-29 71.5zM494 606q0 -8 4 -8q139 -4 141 -4q86 0 182 6 l6 10l-161 443zM797 1556q0 41 28 70q31 31 72 31q39 0 70 -31q29 -29 28 -70q0 -43 -28.5 -71.5t-69.5 -28.5q-43 0 -71.5 28.5t-28.5 71.5z" />
<glyph unicode="&#xc5;" d="M117 25q0 27 8 26q20 0 61 10q35 8 52 29q43 55 94 189l348 892q6 18 10 33q2 8 7 18.5t5 14.5q2 8 13 29l12 24q4 6 16.5 18.5t20.5 14.5t24 2l19 -4l399 -1057q41 -106 58 -143q12 -31 61 -49q55 -20 76 -21q8 0 8 -37q0 -4 -4 -20q-51 2 -109.5 5t-82 4t-29.5 1 l-25 -1q-25 -1 -82 -4t-125 -5q-8 8 -8 32.5t10 24.5q18 0 60 10q37 8 43 27q4 20 4 33q0 14 -8 59q-4 20 -15 58l-6 20l-82 225q-6 8 -12 9q-78 6 -152 6q-86 0 -254 -11l-10 -6l-86 -219q-35 -104 -35 -137q0 -29 16.5 -41t57.5 -23q45 -10 60 -10q6 0 6 -22q0 -29 -2 -35 q-57 2 -109.5 5t-74 4t-23.5 1q-49 0 -70 -2q-10 -2 -32.5 -3t-34.5 -1l-70 -4q-8 8 -8 31zM569 606q0 -8 4 -8q139 -4 144 -4q86 0 180 6l6 10l-162 443zM608 1503.5q0 73.5 54 126.5q51 51 124 51q72 0 123.5 -51t51.5 -127t-52 -127q-53 -53 -123 -53q-72 0 -125 53.5 t-53 127zM674 1503q0 -45 32.5 -77.5t79.5 -32.5q45 0 76 32q33 37 33 78q0 45 -33 78t-76 33t-79 -33q-33 -31 -33 -78z" />
<glyph unicode="&#xc6;" horiz-adv-x="1961" d="M96 -6q-4 4 0 26q6 31 15 31q86 0 120 35q55 49 140 188l553 893q14 23 14 41q0 25 -33 37q-31 12 -57 12q-8 0 -8 29q0 23 8 31q131 -4 231 -4q115 0 312 8q147 6 335 6q8 -51 31 -151q27 -117 27 -119q-10 -10 -35 -10q-27 0 -29 14q-31 109 -84 139q-59 33 -147 33 h-135q-172 0 -176 -27q-10 -55 -11 -168v-319q0 -12 86 -12h107h82q27 0 51 8q10 4 22.5 7t14.5 3q10 4 20 25q14 31 17 34l4 20l8 38q2 14 31 14q25 0 35 -10v-377q-8 -8 -33 -8q-27 0 -33 14l-9 32.5l-8 30t-6 19.5q-8 25 -16 33l-16 12q-27 16 -211 16q-145 0 -146 -18 v-309q0 -131 19 -182q6 -20 137 -21h94q186 0 252 35q31 16 68 70q39 59 59 131q2 12 29 12q37 0 49 -12l-31 -82l-33 -92l-13 -41l-13 -41q-16 -47 -19 -76q-115 0 -354.5 6t-327.5 6l-235 -10q-8 8 -8 31q0 27 8 26q20 0 76 17q51 14 57 30q12 45 12 172v197q0 14 -24 20 q-43 6 -154 7q-27 0 -197 -11l-10 -6l-139 -219q-55 -96 -66 -137q-6 -27 9 -41q29 -29 108 -29q2 0 2 -2t-1 -7t-3 -13q-2 -6 -3 -14.5t-3 -13.5t-2 -7q-121 6 -205 6q-71 0 -209 -6zM684 602q-2 -8 2 -8l139 -4q6 0 146 4q23 0 22 22v431q0 16 -16 16q-10 0 -19 -14z" />
<glyph unicode="&#xc7;" horiz-adv-x="1310" d="M88 643q0 285 190.5 487.5t464.5 202.5q240 0 488 -49q0 -78 -1 -147.5t-2 -103.5t-1 -38q0 -29 -43 -28q-20 0 -27 10q-8 33 -14 51q-10 31 -37 72q-25 37 -72 74q-41 33 -114 53q-78 23 -170 22q-197 0 -334 -172q-137 -170 -137 -391q0 -164 55 -299q53 -131 178 -223 q121 -90 287 -90q197 0 305 116q29 33 49 78q18 41 33 82q12 35 16 35t29 -4q14 -2 26 -10l11 -4q0 -16 -29 -154q-27 -131 -39 -137q-145 -88 -477 -88q-266 0 -451 194q-184 194 -184 461zM596 -295q0 12 12 23q14 10 23 10q12 0 39 -14q29 -16 47 -17q43 0 74 25 q27 20 26.5 55t-23 57.5t-49.5 22.5q-23 0 -61 -17q-2 0 -14.5 12.5t-10.5 16.5l37 55q31 45 39 66h51l-45 -53h62q45 0 73.5 -35t28.5 -82q0 -80 -63.5 -129t-157.5 -49q-53 0 -80 20q0 1 -1 5q-2 5 -3 10q-4 16 -4 18z" />
<glyph unicode="&#xc8;" horiz-adv-x="1140" d="M57 1282q0 27 9 35q139 -4 237 -4q117 0 313 8q147 6 334 6q8 -51 31 -151q27 -117 27 -119q-10 -10 -35 -10q-27 0 -29 14q-31 109 -84 139q-59 33 -147 33h-135q-172 0 -177 -27q-10 -55 -10 -168v-319q0 -12 86 -12h107h82q29 0 53 8q10 4 21.5 7t13.5 3q10 4 20 25 q16 31 17 34q0 2 2 11.5t5 20.5l7 26q2 14 29 14q25 0 34 -10v-377q-8 -8 -32.5 -8t-30.5 14q-14 49 -25 82q-10 29 -14 33q-2 2 -8 6t-10 6q-27 16 -211 16q-145 0 -146 -18v-309q0 -131 19 -182q6 -20 137 -21h94q188 0 254 35q29 14 66 70q39 59 59 131q4 12 29 12 q37 0 49 -12l-31 -82l-33 -92l-13 -41l-13 -41q-16 -47 -19 -76q-27 0 -321.5 4t-360.5 4l-241 -6q-6 6 -7 33q0 25 7 24q29 0 77 15q53 16 62 32q12 20 12 189v755q0 127 -12 172q-4 12 -60 29q-49 14 -79 14q-9 0 -9 25zM293 1663q0 23 24.5 41t77.5 18q25 0 37 -6 q39 -29 146 -131q92 -90 92 -102q0 -27 -21 -27q-37 0 -196.5 80t-159.5 127z" />
<glyph unicode="&#xc9;" horiz-adv-x="1140" d="M57 1282q0 27 9 35q139 -4 237 -4q117 0 313 8q147 6 334 6q8 -51 31 -151q27 -117 27 -119q-10 -10 -35 -10q-27 0 -29 14q-31 109 -84 139q-59 33 -147 33h-135q-172 0 -177 -27q-10 -55 -10 -168v-319q0 -12 86 -12h107h82q29 0 53 8q10 4 21.5 7t13.5 3q10 4 20 25 q16 31 17 34q0 2 2 11.5t5 20.5l7 26q2 14 29 14q25 0 34 -10v-377q-8 -8 -32.5 -8t-30.5 14q-14 49 -25 82q-10 29 -14 33q-2 2 -8 6t-10 6q-27 16 -211 16q-145 0 -146 -18v-309q0 -131 19 -182q6 -20 137 -21h94q188 0 254 35q29 14 66 70q39 59 59 131q4 12 29 12 q37 0 49 -12l-31 -82l-33 -92l-13 -41l-13 -41q-16 -47 -19 -76q-27 0 -321.5 4t-360.5 4l-241 -6q-6 6 -7 33q0 25 7 24q29 0 77 15q53 16 62 32q12 20 12 189v755q0 127 -12 172q-4 12 -60 29q-49 14 -79 14q-9 0 -9 25zM487 1483q0 12 93 102q106 102 145 131q12 6 37 6 q53 0 78 -18q27 -20 26 -41q0 -47 -159.5 -127t-198.5 -80q-21 0 -21 27z" />
<glyph unicode="&#xca;" horiz-adv-x="1140" d="M57 1282q0 27 9 35q139 -4 237 -4q117 0 313 8q147 6 334 6q8 -51 31 -151q27 -117 27 -119q-10 -10 -35 -10q-27 0 -29 14q-31 109 -84 139q-59 33 -147 33h-135q-172 0 -177 -27q-10 -55 -10 -168v-319q0 -12 86 -12h107h82q29 0 53 8q10 4 21.5 7t13.5 3q10 4 20 25 q16 31 17 34q0 2 2 11.5t5 20.5l7 26q2 14 29 14q25 0 34 -10v-377q-8 -8 -32.5 -8t-30.5 14q-14 49 -25 82q-10 29 -14 33q-2 2 -8 6t-10 6q-27 16 -211 16q-145 0 -146 -18v-309q0 -131 19 -182q6 -20 137 -21h94q188 0 254 35q29 14 66 70q39 59 59 131q4 12 29 12 q37 0 49 -12l-31 -82l-33 -92l-13 -41l-13 -41q-16 -47 -19 -76q-27 0 -321.5 4t-360.5 4l-241 -6q-6 6 -7 33q0 25 7 24q29 0 77 15q53 16 62 32q12 20 12 189v755q0 127 -12 172q-4 12 -60 29q-49 14 -79 14q-9 0 -9 25zM340 1436l8 8t18.5 17.5t24.5 21.5l72 65 q57 55 84 92q16 16 18 17q12 0 23 -17q51 -63 82 -96l57 -51l49 -41q18 -14 19 -16q0 -39 -19 -39q-41 0 -211 114q-53 -39 -116 -75q-70 -39 -89 -39q-20 0 -20 39z" />
<glyph unicode="&#xcb;" horiz-adv-x="1140" d="M57 1282q0 27 9 35q139 -4 237 -4q117 0 313 8q147 6 334 6q8 -51 31 -151q27 -117 27 -119q-10 -10 -35 -10q-27 0 -29 14q-31 109 -84 139q-59 33 -147 33h-135q-172 0 -177 -27q-10 -55 -10 -168v-319q0 -12 86 -12h107h82q29 0 53 8q10 4 21.5 7t13.5 3q10 4 20 25 q16 31 17 34q0 2 2 11.5t5 20.5l7 26q2 14 29 14q25 0 34 -10v-377q-8 -8 -32.5 -8t-30.5 14q-14 49 -25 82q-10 29 -14 33q-2 2 -8 6t-10 6q-27 16 -211 16q-145 0 -146 -18v-309q0 -131 19 -182q6 -20 137 -21h94q188 0 254 35q29 14 66 70q39 59 59 131q4 12 29 12 q37 0 49 -12l-31 -82l-33 -92l-13 -41l-13 -41q-16 -47 -19 -76q-27 0 -321.5 4t-360.5 4l-241 -6q-6 6 -7 33q0 25 7 24q29 0 77 15q53 16 62 32q12 20 12 189v755q0 127 -12 172q-4 12 -60 29q-49 14 -79 14q-9 0 -9 25zM289 1556q0 41 28 70q31 31 70 31q41 0 72 -31 q29 -29 28 -70q0 -43 -28.5 -71.5t-71.5 -28.5q-41 0 -69.5 28.5t-28.5 71.5zM649 1556q0 39 31 70t70 31q41 0 71 -31q29 -29 29 -70q0 -43 -28.5 -71.5t-71.5 -28.5q-41 0 -70 29q-31 30 -31 71z" />
<glyph unicode="&#xcc;" horiz-adv-x="634" d="M72 1663q0 20 26 41q25 18 78 18q25 0 37 -6q39 -29 145 -131q92 -90 93 -102q0 -27 -21 -27q-39 0 -198.5 80t-159.5 127zM76 25q0 27 8 26q27 0 78 12q49 12 55 29q14 51 14 178v777q0 127 -14 178q-6 16 -55 28q-51 12 -78 13q-8 0 -8 26q0 23 8 31q205 -8 240 -8 q53 0 231 8q4 -16 4 -29q0 -29 -6 -28q-25 0 -74 -15q-53 -16 -55 -26q-18 -70 -18 -187v-759q0 -115 18 -187q2 -14 55 -26q61 -14 74 -15q6 0 6 -28q0 -12 -4 -29q-221 10 -231 10q-2 0 -28 -1t-86 -4t-126 -5q-8 8 -8 31z" />
<glyph unicode="&#xcd;" horiz-adv-x="634" d="M76 25q0 27 8 26q27 0 78 12q49 12 55 29q14 51 14 178v777q0 127 -14 178q-6 16 -55 28q-51 12 -78 13q-8 0 -8 26q0 23 8 31q205 -8 240 -8q53 0 231 8q4 -16 4 -29q0 -29 -6 -28q-25 0 -74 -15q-53 -16 -55 -26q-18 -70 -18 -187v-759q0 -115 18 -187q2 -14 55 -26 q61 -14 74 -15q6 0 6 -28q0 -12 -4 -29q-221 10 -231 10q-2 0 -28 -1t-86 -4t-126 -5q-8 8 -8 31zM221 1483q0 12 92 102q100 96 148 131q12 6 35 6q53 0 77 -18q27 -20 27 -41q0 -47 -159.5 -127t-198.5 -80q-21 0 -21 27z" />
<glyph unicode="&#xce;" horiz-adv-x="634" d="M76 25q0 27 8 26q27 0 78 12q49 12 55 29q14 51 14 178v777q0 127 -14 178q-6 16 -55 28q-51 12 -78 13q-8 0 -8 26q0 23 8 31q205 -8 240 -8q53 0 231 8q4 -16 4 -29q0 -29 -6 -28q-25 0 -74 -15q-53 -16 -55 -26q-18 -70 -18 -187v-759q0 -115 18 -187q2 -14 55 -26 q61 -14 74 -15q6 0 6 -28q0 -12 -4 -29q-221 10 -231 10q-2 0 -28 -1t-86 -4t-126 -5q-8 8 -8 31zM104 1450q2 2 8.5 8l18.5 17.5t25 21.5l69 66q57 55 84 92q14 14 21 14q14 0 22 -14q49 -66 82 -96l58 -52l49 -41q16 -14 16 -16q0 -41 -16 -41q-39 0 -211 117 q-53 -39 -117 -76q-72 -41 -88 -41q-21 0 -21 41z" />
<glyph unicode="&#xcf;" horiz-adv-x="634" d="M47 1556q0 39 31 70t69 31q41 0 72 -31q29 -29 29 -70q0 -43 -29 -71.5t-72 -28.5q-41 0 -69 29q-31 30 -31 71zM76 25q0 27 8 26q27 0 78 12q49 12 55 29q14 51 14 178v777q0 127 -14 178q-6 16 -55 28q-51 12 -78 13q-8 0 -8 26q0 23 8 31q205 -8 240 -8q53 0 231 8 q4 -16 4 -29q0 -29 -6 -28q-25 0 -74 -15q-53 -16 -55 -26q-18 -70 -18 -187v-759q0 -115 18 -187q2 -14 55 -26q61 -14 74 -15q6 0 6 -28q0 -12 -4 -29q-221 10 -231 10q-2 0 -28 -1t-86 -4t-126 -5q-8 8 -8 31zM410 1556q0 41 28 70q31 31 72 31t72 -31q29 -29 28 -70 q0 -43 -28.5 -71.5t-71.5 -28.5t-71.5 28.5t-28.5 71.5z" />
<glyph unicode="&#xd0;" horiz-adv-x="1460" d="M102 1282q0 27 9 35q139 -4 237 -4q111 0 190.5 2t157.5 2q326 0 508 -192.5t182 -452.5q0 -291 -184 -484q-184 -195 -508 -194q-6 0 -24.5 1t-53 2t-67.5 1q-152 4 -197 2l-241 -6q-6 6 -7 31q0 27 7 26q27 0 75 15q53 16 62 32q14 23 14 189v755q0 121 -14 172 q-4 12 -60 29q-49 14 -77 14q-9 0 -9 25zM129 641q0 37 12 55h690q12 0 13 -20q0 -33 -13 -60h-692q-10 0 -10 25zM436 279q0 -84 31 -152q10 -23 106 -31q109 -10 152 -10q229 0 350 152q119 150 119 442q0 229 -125 387q-127 162 -356 162h-11q-213 0 -239 -33 q-27 -41 -27 -127v-790z" />
<glyph unicode="&#xd1;" horiz-adv-x="1441" d="M41 24.5q0 26.5 4 26.5q23 0 92 17q63 14 70 32q18 45 18 189v784q0 111 -12 152q-6 16 -70 28q-61 12 -90 13q-8 0 -8 24.5t8 32.5q104 -2 205 -2q123 0 160 2q74 -137 678 -979q6 33 6 82v623q0 125 -15 176q-6 16 -67 30q-59 14 -90 15q-8 0 -8 22.5t8 30.5q8 0 43 -2 t61 -4q51 -4 131 -4q51 0 131 6q53 4 95 4q4 -16 4 -29q0 -25 -9 -24q-16 0 -88 -17q-68 -14 -69 -28q-16 -66 -17 -187v-759q0 -123 7 -281q-8 -8 -39 -8q-35 0 -66 47l-776 1100v-854q0 -135 14 -187q2 -12 68 -28q70 -16 82 -17q8 0 8 -22.5t-4 -34.5q-221 10 -230 10 l-231 -10q-4 4 -4 30.5zM436 1477q0 55 56 98q53 41 100 41q57 0 137 -41q82 -43 139 -43q72 0 103 67q2 2 10 3q18 0 18 -31q0 -55 -55 -98t-100 -43q-58 0 -142 43t-139 43q-66 0 -96 -70q-2 -2 -12 -2q-19 0 -19 33z" />
<glyph unicode="&#xd2;" horiz-adv-x="1454" d="M88 655q0 281 186.5 479.5t450.5 198.5q266 0 453 -198q188 -201 188 -479.5t-188.5 -477t-452.5 -198.5q-262 0 -451 198q-186 194 -186 477zM287 700q0 -164 51 -303q51 -141 162 -235q113 -96 258 -96q127 0 223 83.5t141 204.5t45 264q0 162 -51 302 q-51 141 -162 235q-109 94 -258 94q-190 0 -301 -166q-108 -162 -108 -383zM455 1663q0 23 24.5 41t77.5 18q25 0 37 -6q39 -29 145 -131q92 -90 92 -102q0 -27 -20 -27q-37 0 -196.5 80t-159.5 127z" />
<glyph unicode="&#xd3;" horiz-adv-x="1454" d="M88 655q0 281 186.5 479.5t450.5 198.5q266 0 453 -198q188 -201 188 -479.5t-188.5 -477t-452.5 -198.5q-262 0 -451 198q-186 194 -186 477zM287 700q0 -164 51 -303q51 -141 162 -235q113 -96 258 -96q127 0 223 83.5t141 204.5t45 264q0 162 -51 302 q-51 141 -162 235q-109 94 -258 94q-190 0 -301 -166q-108 -162 -108 -383zM612 1483q0 12 93 102q106 102 145 131q12 6 37 6q53 0 77.5 -18t24.5 -41q0 -47 -159.5 -127t-196.5 -80q-21 0 -21 27z" />
<glyph unicode="&#xd4;" horiz-adv-x="1454" d="M88 655q0 281 186.5 479.5t450.5 198.5q266 0 453 -198q188 -201 188 -479.5t-188.5 -477t-452.5 -198.5q-262 0 -451 198q-186 194 -186 477zM287 700q0 -164 51 -303q51 -141 162 -235q113 -96 258 -96q127 0 223 83.5t141 204.5t45 264q0 162 -51 302 q-51 141 -162 235q-109 94 -258 94q-190 0 -301 -166q-108 -162 -108 -383zM510 1436l8 8t18.5 17.5t24.5 21.5l72 65q57 55 84 92q16 16 18 17q12 0 23 -17q49 -63 82 -96l57 -51l49 -41q18 -14 19 -16q0 -39 -19 -39q-41 0 -211 114q-53 -39 -117 -75q-70 -39 -88 -39 q-20 0 -20 39z" />
<glyph unicode="&#xd5;" horiz-adv-x="1454" d="M88 655q0 281 186.5 479.5t450.5 198.5q266 0 453 -198q188 -201 188 -479.5t-188.5 -477t-452.5 -198.5q-262 0 -451 198q-186 194 -186 477zM287 700q0 -164 51 -303q51 -141 162 -235q113 -96 258 -96q127 0 223 83.5t141 204.5t45 264q0 162 -51 302 q-51 141 -162 235q-109 94 -258 94q-190 0 -301 -166q-108 -162 -108 -383zM436 1477q0 55 56 98q53 41 100 41q57 0 137 -41q82 -43 139 -43q72 0 103 67q2 2 10 3q18 0 18 -31q0 -55 -55 -98t-100 -43q-58 0 -142 43t-139 43q-66 0 -96 -70q-2 -2 -12 -2q-19 0 -19 33z " />
<glyph unicode="&#xd6;" horiz-adv-x="1454" d="M88 655q0 281 186.5 479.5t450.5 198.5q266 0 453 -198q188 -201 188 -479.5t-188.5 -477t-452.5 -198.5q-262 0 -451 198q-186 194 -186 477zM287 700q0 -164 51 -303q51 -141 162 -235q113 -96 258 -96q127 0 223 83.5t141 204.5t45 264q0 162 -51 302 q-51 141 -162 235q-109 94 -258 94q-190 0 -301 -166q-108 -162 -108 -383zM457 1556q0 41 28 70q31 31 70 31q41 0 72 -31q29 -29 28 -70q0 -43 -28.5 -71.5t-71.5 -28.5q-41 0 -69.5 28.5t-28.5 71.5zM817 1556q0 39 31 70t70 31q41 0 71 -31q29 -29 29 -70 q0 -43 -28.5 -71.5t-71.5 -28.5q-41 0 -70 29q-31 30 -31 71z" />
<glyph unicode="&#xd7;" horiz-adv-x="827" d="M53 215l277 270q2 2 2 7q0 6 -4 10l-275 274q0 18 27 58q25 37 37 36q2 0 10 -8l283 -282q4 -4 8 -5l4 3l283 282q6 6 10 6q8 0 33 -41q25 -39 24 -57l-270 -270q-2 -2 -2 -6v-5l272 -272q0 -23 -20 -57q-23 -37 -31 -37q-10 0 -16 6l-281 279q-4 4 -8 4t-8 -4l-285 -279 q-6 -6 -10 -6q-10 0 -35 39q-25 40 -25 55z" />
<glyph unicode="&#xd8;" horiz-adv-x="1390" d="M55 655.5q0 278.5 189 479.5q186 199 450 198q266 0 452.5 -198.5t186.5 -479.5q0 -283 -186 -477q-188 -199 -453 -198q-262 0 -450.5 198.5t-188.5 477zM244 20l835 1313q16 -4 41 -18q25 -15 19 -25l-838 -1317q-18 6 -40.5 22.5t-16.5 24.5zM254 700q0 -164 51 -303 t164 -235t256 -96q129 0 225.5 83.5t141.5 204.5t45 264q0 158 -54 302q-51 141 -161 235q-109 94 -258 94q-188 0 -299 -166t-111 -383z" />
<glyph unicode="&#xd9;" horiz-adv-x="1437" d="M66 1292q0 23 8 31q205 -8 239 -8q55 0 234 8q4 -16 4 -27q0 -31 -8 -30q-25 0 -74 -15q-53 -16 -55 -26q-18 -70 -19 -187v-446q0 -223 97 -361q94 -133 272 -133q342 0 342 451v500q0 125 -14 176q-6 16 -68 30q-59 14 -90 15q-8 0 -8 22.5t8 30.5q8 0 43 -2t61 -4 q51 -4 131 -4q51 0 131 6q53 4 95 4q4 -16 4 -29q0 -25 -8 -24q-16 0 -88 -17q-68 -14 -70 -28q-16 -66 -16 -187v-485q0 -311 -131.5 -432t-368.5 -121q-240 0 -367 139q-129 141 -129 453v455q0 133 -12 178q-6 16 -57 28q-53 12 -78 13q-8 -1 -8 26zM469 1663 q0 23 24.5 41t77.5 18q25 0 37 -6q39 -29 146 -131q92 -90 92 -102q0 -27 -21 -27q-37 0 -196.5 80t-159.5 127z" />
<glyph unicode="&#xda;" horiz-adv-x="1437" d="M66 1292q0 23 8 31q205 -8 239 -8q55 0 234 8q4 -16 4 -27q0 -31 -8 -30q-25 0 -74 -15q-53 -16 -55 -26q-18 -70 -19 -187v-446q0 -223 97 -361q94 -133 272 -133q342 0 342 451v500q0 125 -14 176q-6 16 -68 30q-59 14 -90 15q-8 0 -8 22.5t8 30.5q8 0 43 -2t61 -4 q51 -4 131 -4q51 0 131 6q53 4 95 4q4 -16 4 -29q0 -25 -8 -24q-16 0 -88 -17q-68 -14 -70 -28q-16 -66 -16 -187v-485q0 -311 -131.5 -432t-368.5 -121q-240 0 -367 139q-129 141 -129 453v455q0 133 -12 178q-6 16 -57 28q-53 12 -78 13q-8 -1 -8 26zM614 1483 q0 12 93 102q106 102 145 131q12 6 37 6q53 0 77.5 -18t24.5 -41q0 -47 -159.5 -127t-196.5 -80q-21 0 -21 27z" />
<glyph unicode="&#xdb;" horiz-adv-x="1437" d="M66 1292q0 23 8 31q205 -8 239 -8q55 0 234 8q4 -16 4 -27q0 -31 -8 -30q-25 0 -74 -15q-53 -16 -55 -26q-18 -70 -19 -187v-446q0 -223 97 -361q94 -133 272 -133q342 0 342 451v500q0 125 -14 176q-6 16 -68 30q-59 14 -90 15q-8 0 -8 22.5t8 30.5q8 0 43 -2t61 -4 q51 -4 131 -4q51 0 131 6q53 4 95 4q4 -16 4 -29q0 -25 -8 -24q-16 0 -88 -17q-68 -14 -70 -28q-16 -66 -16 -187v-485q0 -311 -131.5 -432t-368.5 -121q-240 0 -367 139q-129 141 -129 453v455q0 133 -12 178q-6 16 -57 28q-53 12 -78 13q-8 -1 -8 26zM518 1436l8 8 t18.5 17.5t24.5 21.5l70 65q63 61 86 92q16 16 18 17q12 0 23 -17q49 -63 82 -96l57 -51l49 -41q18 -14 19 -16q0 -39 -19 -39q-41 0 -211 114q-53 -39 -116 -75q-70 -39 -88 -39q-21 0 -21 39z" />
<glyph unicode="&#xdc;" horiz-adv-x="1437" d="M66 1292q0 23 8 31q205 -8 239 -8q55 0 234 8q4 -16 4 -27q0 -31 -8 -30q-25 0 -74 -15q-53 -16 -55 -26q-18 -70 -19 -187v-446q0 -223 97 -361q94 -133 272 -133q342 0 342 451v500q0 125 -14 176q-6 16 -68 30q-59 14 -90 15q-8 0 -8 22.5t8 30.5q8 0 43 -2t61 -4 q51 -4 131 -4q51 0 131 6q53 4 95 4q4 -16 4 -29q0 -25 -8 -24q-16 0 -88 -17q-68 -14 -70 -28q-16 -66 -16 -187v-485q0 -311 -131.5 -432t-368.5 -121q-240 0 -367 139q-129 141 -129 453v455q0 133 -12 178q-6 16 -57 28q-53 12 -78 13q-8 -1 -8 26zM463 1556q0 41 29 70 q31 31 69 31q41 0 72 -31q29 -29 29 -70q0 -43 -29 -71.5t-72 -28.5q-41 0 -69.5 28.5t-28.5 71.5zM823 1556q0 39 31 70t70 31q41 0 71 -31q29 -29 29 -70q0 -43 -28.5 -71.5t-71.5 -28.5q-41 0 -70 29q-31 30 -31 71z" />
<glyph unicode="&#xdd;" horiz-adv-x="1296" d="M31 1292.5q0 22.5 8 30.5q45 -2 106 -6q51 -4 134 -4q66 0 264 10q2 -6 2 -31q0 -23 -6 -22q-39 0 -78 -17q-43 -18 -43 -51q0 -20 22 -59l224 -424q12 -10 20 4q272 410 272 481q0 20 -41 43t-98 23q-6 0 -6 22q0 25 6 31q184 -10 238 -10q63 0 127 6q43 4 84 4 q4 -16 4 -29q0 -25 -8 -24q-23 0 -84 -19q-57 -16 -80 -43l-221 -358q-145 -242 -146 -268v-303q0 -121 17 -187q2 -12 55 -28.5t67 -16.5q8 0 9 -24q0 -12 -5 -29q-221 10 -225 10q-2 0 -26.5 -1t-83 -4t-125.5 -5q-8 8 -8 29q0 25 8 24q29 0 73 14q49 15 56 31 q14 57 14 193v250q0 28 -43 110q-63 123 -248 453q-33 63 -49 84q-23 27 -49 45q-14 10 -66 28q-41 14 -63 15q-8 0 -8 22.5zM614 1483q0 12 93 102q106 102 145 131q12 6 37 6q53 0 77.5 -18t24.5 -41q0 -47 -159.5 -127t-196.5 -80q-21 0 -21 27z" />
<glyph unicode="&#xde;" horiz-adv-x="1110" d="M100 25q0 27 9 26q23 0 75 12q51 12 58 29q14 51 14 178v777q0 127 -14 178q-6 16 -58 28q-53 12 -75 13q-8 0 -9 26q0 23 9 31q205 -8 239 -8q53 0 232 8q4 -16 4 -29q0 -29 -9 -28q-23 0 -71 -15q-53 -16 -55 -26q-18 -68 -19 -176v-41q0 -14 8 -15l2 1q2 1 5.5 2 t8.5 2t11 3q47 12 65 15q43 6 97 6q70 0 133 -21q68 -23 129 -59.5t102 -114.5q41 -76 41 -172q0 -57 -24 -125q-23 -61 -74 -129q-49 -65 -129 -104q-82 -41 -180 -41q-113 0 -156 55q-10 14 -4 47q2 5 4 7q63 -23 135 -23q100 0 172 84t72 201q0 143 -61.5 225t-192.5 82 q-102 0 -139 -14q-25 -9 -25 -74v-567q0 -115 19 -187q2 -14 55 -26q61 -14 71 -15q8 0 9 -28q0 -12 -4 -29q-221 10 -232 10q-2 0 -27.5 -1t-86 -4t-125.5 -5q-9 8 -9 31z" />
<glyph unicode="&#xdf;" horiz-adv-x="1155" d="M94 25q0 27 8 26q18 0 66 15q43 12 45 26q16 63 16 178q2 184 2 453q0 14 -10 14h-104q-6 0 -6 13q0 25 10 51q12 31 18 30h82q10 0 10 13v33q0 250 93 378q94 131 249 131q160 0 256.5 -65.5t96.5 -198.5q0 -77 -43 -141q-47 -72 -95 -104q-49 -35 -96 -82 q-43 -43 -43 -76q0 -41 33 -76q37 -39 68 -59q37 -25 96 -54l76 -43q20 -14 65 -51q35 -29 55.5 -74t20.5 -88q0 -119 -78 -206.5t-186 -87.5q-82 0 -152 28q-68 29 -86 58q0 117 70 116q20 0 39 -20q16 -20 30 -47q12 -23 39 -47q27 -23 62 -23q55 0 90 43q35 45 35 117 q0 53 -39 94q-41 45 -99 72q-58 28 -116 61q-59 35 -98 88t-39 129q0 55 24 94q27 43 62 72q25 20 69 66q39 39 62 90q25 55 24 127q0 102 -51 162q-53 61 -145 61q-63 0 -105 -35q-43 -37 -59 -92q-18 -63 -25 -115q-6 -55 -6 -129l2 -680q0 -127 14 -178q2 -14 48 -26 q51 -14 59 -15q6 0 8 -22q2 -20 -2 -35q-59 2 -109.5 5t-72.5 4l-23 1l-21 -1q-22 -1 -73 -4t-113 -5q-8 8 -8 31z" />
<glyph unicode="&#xe0;" horiz-adv-x="845" d="M78 182q0 41 22 82q23 43 52 66q39 31 81 51q66 31 91 39l96 33q20 6 48 16t36 12q18 6 18 31v150q0 66 -41 100.5t-96 34.5q-57 0 -98 -41t-41 -109q0 -70 -82 -69q-55 0 -78 38q0 84 127 170t256 86q109 0 158 -53q47 -49 47 -172v-461q0 -41 22.5 -69.5t59.5 -28.5 q25 0 69 29q8 0 9 -17q0 -27 -11 -43q-82 -70 -139 -69q-43 0 -88 39q-41 35 -57 79q-2 0 -17 -14q-4 -4 -16 -13t-19 -16q-4 -2 -51 -34q-28 -18 -67 -31q-41 -12 -78 -12q-92 0 -154 49q-59 47 -59 147zM174 1266q0 10 4 16q6 8 26.5 20.5t51.5 12.5q49 0 68 -19 q25 -29 79 -106q33 -45 76 -115q31 -49 31 -55q0 -27 -25 -27q-20 0 -168 113q-143 111 -143 160zM246 213q0 -55 34.5 -84t88.5 -29q55 0 102 33q51 35 51 68v205q-4 -2 -14 -6.5t-28.5 -9.5t-35.5 -11q-76 -27 -98 -37q-34 -15 -67 -49q-33 -33 -33 -80z" />
<glyph unicode="&#xe1;" horiz-adv-x="845" d="M78 182q0 41 22 82q23 43 52 66q39 31 81 51q66 31 91 39l96 33q20 6 48 16t36 12q18 6 18 31v150q0 66 -41 100.5t-96 34.5q-57 0 -98 -41t-41 -109q0 -70 -82 -69q-55 0 -78 38q0 84 127 170t256 86q109 0 158 -53q47 -49 47 -172v-461q0 -41 22.5 -69.5t59.5 -28.5 q25 0 69 29q8 0 9 -17q0 -27 -11 -43q-82 -70 -139 -69q-43 0 -88 39q-41 35 -57 79q-2 0 -17 -14q-4 -4 -16 -13t-19 -16q-4 -2 -51 -34q-28 -18 -67 -31q-41 -12 -78 -12q-92 0 -154 49q-59 47 -59 147zM246 213q0 -55 34.5 -84t88.5 -29q55 0 102 33q51 35 51 68v205 q-4 -2 -14 -6.5t-28.5 -9.5t-35.5 -11q-76 -27 -98 -37q-34 -15 -67 -49q-33 -33 -33 -80zM322 1020q0 4 30 57q35 59 76 117q49 70 80 102q18 18 67 19q31 0 54 -12q18 -10 24 -21q4 -6 4 -16q0 -49 -143 -160q-147 -113 -168 -113q-24 0 -24 27z" />
<glyph unicode="&#xe2;" horiz-adv-x="845" d="M78 182q0 41 22 82q23 43 52 66q39 31 81 51q66 31 91 39l96 33q20 6 48 16t36 12q18 6 18 31v150q0 66 -41 100.5t-96 34.5q-57 0 -98 -41t-41 -109q0 -70 -82 -69q-55 0 -78 38q0 84 127 170t256 86q109 0 158 -53q47 -49 47 -172v-461q0 -41 22.5 -69.5t59.5 -28.5 q25 0 69 29q8 0 9 -17q0 -27 -11 -43q-82 -70 -139 -69q-43 0 -88 39q-41 35 -57 79q-2 0 -17 -14q-4 -4 -16 -13t-19 -16q-4 -2 -51 -34q-28 -18 -67 -31q-41 -12 -78 -12q-92 0 -154 49q-59 47 -59 147zM209 981q2 2 7 8t15.5 17.5l20.5 23.5l63 76q45 59 74 106 q12 20 17 21q12 0 20 -21l72 -110q16 -20 49 -58q37 -41 43 -47l16 -16q0 -47 -14 -47q-18 0 -78 45q-72 53 -108 88q-39 -39 -105 -88q-59 -45 -75.5 -45t-16.5 47zM246 213q0 -55 34.5 -84t88.5 -29q55 0 102 33q51 35 51 68v205q-4 -2 -14 -6.5t-28.5 -9.5t-35.5 -11 q-76 -27 -98 -37q-34 -15 -67 -49q-33 -33 -33 -80z" />
<glyph unicode="&#xe3;" horiz-adv-x="845" d="M78 182q0 41 22 82q23 43 52 66q39 31 81 51q66 31 91 39l96 33q20 6 48 16t36 12q18 6 18 31v150q0 66 -41 100.5t-96 34.5q-57 0 -98 -41t-41 -109q0 -70 -82 -69q-55 0 -78 38q0 84 127 170t256 86q109 0 158 -53q47 -49 47 -172v-461q0 -41 22.5 -69.5t59.5 -28.5 q25 0 69 29q8 0 9 -17q0 -27 -11 -43q-82 -70 -139 -69q-43 0 -88 39q-41 35 -57 79q-2 0 -17 -14q-4 -4 -16 -13t-19 -16q-4 -2 -51 -34q-28 -18 -67 -31q-41 -12 -78 -12q-92 0 -154 49q-59 47 -59 147zM96 1040q0 55 56 99q53 41 100 41q57 0 137 -41q82 -43 139 -43 q72 0 103 67q2 2 10 2q18 0 18 -30q0 -55 -55 -98.5t-100 -43.5q-58 0 -142 43t-139 43q-66 0 -96 -69q-2 -2 -12 -2q-19 -1 -19 32zM246 213q0 -55 34.5 -84t88.5 -29q55 0 102 33q51 35 51 68v205q-4 -2 -14 -6.5t-28.5 -9.5t-35.5 -11q-76 -27 -98 -37q-34 -15 -67 -49 q-33 -33 -33 -80z" />
<glyph unicode="&#xe4;" horiz-adv-x="845" d="M78 182q0 41 22 82q23 43 52 66q39 31 81 51q66 31 91 39l96 33q20 6 48 16t36 12q18 6 18 31v150q0 66 -41 100.5t-96 34.5q-57 0 -98 -41t-41 -109q0 -70 -82 -69q-55 0 -78 38q0 84 127 170t256 86q109 0 158 -53q47 -49 47 -172v-461q0 -41 22.5 -69.5t59.5 -28.5 q25 0 69 29q8 0 9 -17q0 -27 -11 -43q-82 -70 -139 -69q-43 0 -88 39q-41 35 -57 79q-2 0 -17 -14q-4 -4 -16 -13t-19 -16q-4 -2 -51 -34q-28 -18 -67 -31q-41 -12 -78 -12q-92 0 -154 49q-59 47 -59 147zM113 1092q0 43 30 69q33 29 70 29q41 0 70 -31q29 -33 28 -69 q0 -41 -28 -68q-33 -29 -70 -29t-72 31q-28 27 -28 68zM246 213q0 -55 34.5 -84t88.5 -29q55 0 102 33q51 35 51 68v205q-4 -2 -14 -6.5t-28.5 -9.5t-35.5 -11q-76 -27 -98 -37q-34 -15 -67 -49q-33 -33 -33 -80zM477 1092q0 41 33 69.5t70 28.5q43 0 69 -31q29 -33 29 -69 q0 -40 -31 -68q-33 -29 -69 -29q-35 0 -70 31q-31 28 -31 68z" />
<glyph unicode="&#xe5;" horiz-adv-x="845" d="M78 182q0 41 22 82q23 43 52 66q39 31 81 51q66 31 91 39l96 33q20 6 48 16t36 12q18 6 18 31v150q0 66 -41 100.5t-96 34.5q-57 0 -98 -41t-41 -109q0 -70 -82 -69q-55 0 -78 38q0 84 127 170t256 86q109 0 158 -53q47 -49 47 -172v-461q0 -41 22.5 -69.5t59.5 -28.5 q25 0 69 29q8 0 9 -17q0 -27 -11 -43q-82 -70 -139 -69q-43 0 -88 39q-41 35 -57 79q-2 0 -17 -14q-4 -4 -16 -13t-19 -16q-4 -2 -51 -34q-28 -18 -67 -31q-41 -12 -78 -12q-92 0 -154 49q-59 47 -59 147zM233 1173.5q0 73.5 54 126.5q51 51 122.5 51.5t123 -51t51.5 -127 t-52 -126.5q-53 -53 -122.5 -53.5t-123 53t-53.5 127zM246 213q0 -55 34.5 -84t88.5 -29q55 0 102 33q51 35 51 68v205q-4 -2 -14 -6.5t-28.5 -9.5t-35.5 -11q-76 -27 -98 -37q-34 -15 -67 -49q-33 -33 -33 -80zM299 1174q0 -41 33 -78q31 -33 78 -33q45 0 75 33 q33 37 33 78q0 47 -31 77q-33 33 -77.5 33t-77.5 -32.5t-33 -77.5z" />
<glyph unicode="&#xe6;" horiz-adv-x="1349" d="M100 182q0 66 43 121t113 90q68 34 135 56q59 18 135 32q18 3 19 31v168q0 49 -41 84q-39 33 -96 33q-59 0 -101 -41q-39 -39 -39 -108.5t-82 -69.5q-55 0 -77 38q0 84 124 170q127 86 256 86q63 0 121 -28q51 -27 72 -80q109 109 254 108q94 0 160 -32q70 -35 102 -88 q34 -55 49 -111q14 -51 15 -111v-18q0 -4 -5 -12q-2 -4 -2 -11q0 -3 -6 -6l-6 -4q-2 -2 -8 -2l-10 -2q-4 -2 -11 -2h-10q-102 -8 -479 -29q-14 0 -14 -16q0 -127 86 -219t211 -92q53 0 92 10q49 12 67 23q39 18 52 28q25 18 26 19q12 0 12 -27t-14 -41q-120 -141 -282 -141 q-211 0 -324 168q-49 -57 -137 -113q-92 -57 -189 -57q-90 0 -151 49q-60 47 -60 147zM268 213q0 -57 33 -84q35 -29 88 -29q57 0 105 33q51 35 51 68v205q-277 -54 -277 -193zM713 535q0 -12 12 -13q57 2 221 17q131 12 152 16q10 4 10 18q0 57 -53 140q-55 86 -127 86 q-98 0 -158 -90q-57 -88 -57 -174z" />
<glyph unicode="&#xe7;" horiz-adv-x="808" d="M74 418q0 186 100 319q101 135 289 135q219 0 303 -102q0 -133 -74 -133q-37 0 -53 14.5t-45 55.5q-61 92 -148 92q-82 0 -149.5 -78t-67.5 -234q0 -160 80 -266q78 -104 219 -104q47 0 80 8q55 14 66 18q35 14 45 23q12 8 33 20l14 11q12 0 12 -27q0 -15 -12 -37 q-37 -51 -119 -100q-76 -45 -170 -45q-166 0 -284.5 125t-118.5 305zM313 -250q0 8 10.5 18.5t18.5 10.5q6 0 35 -15q25 -12 39 -12q43 0 63 19q23 18 23 47q0 33 -21 51q-18 16 -41 16q-25 0 -53 -12q-4 0 -12 8q-10 10 -6 17q2 4 9 16t21 33q8 12 33 53h41l-35 -45h49 q37 0 64 -31q25 -28 24 -67q0 -70 -53 -111q-55 -43 -135 -43q-40 0 -68 18q0 6 -2 13q-4 12 -4 16z" />
<glyph unicode="&#xe8;" horiz-adv-x="858" d="M74 418q0 211 112 332q114 123 283 122q90 0 164 -34q68 -33 106 -90q33 -51 54 -113q18 -57 18 -113q0 -40 -12 -49q-10 -8 -47 -8h-504q-16 0 -17 -10q0 -127 76 -234q74 -104 221 -104q47 0 80 8q55 14 66 18q35 14 45 23q12 8 33 20l14 11q12 0 12 -27q0 -15 -12 -37 q-37 -51 -119 -100q-76 -45 -170 -45q-166 0 -284.5 125t-118.5 305zM211 1266q0 10 4 16q6 10 25 21q23 12 53 12q49 0 67 -19q25 -29 80 -106q33 -45 76 -115q31 -49 31 -55q0 -27 -25 -27q-23 0 -170 113q-141 109 -141 160zM236 561q0 -12 12 -12h391q8 0 8 18 q0 68 -53 148q-55 84 -143 84q-104 0 -160 -90q-55 -90 -55 -148z" />
<glyph unicode="&#xe9;" horiz-adv-x="858" d="M74 418q0 211 112 332q114 123 283 122q90 0 164 -34q68 -33 106 -90q33 -51 54 -113q18 -57 18 -113q0 -40 -12 -49q-10 -8 -47 -8h-504q-16 0 -17 -10q0 -127 76 -234q74 -104 221 -104q47 0 80 8q55 14 66 18q35 14 45 23q12 8 33 20l14 11q12 0 12 -27q0 -15 -12 -37 q-37 -51 -119 -100q-76 -45 -170 -45q-166 0 -284.5 125t-118.5 305zM236 561q0 -12 12 -12h391q8 0 8 18q0 68 -53 148q-55 84 -143 84q-104 0 -160 -90q-55 -90 -55 -148zM346 1020q0 4 31 57q35 59 76 117q49 70 79 102q18 18 68 19q31 0 51.5 -12.5t26.5 -20.5 q4 -6 4 -16q0 -49 -143 -160q-147 -113 -168 -113q-25 0 -25 27z" />
<glyph unicode="&#xea;" horiz-adv-x="858" d="M74 418q0 211 112 332q114 123 283 122q90 0 164 -34q68 -33 106 -90q33 -51 54 -113q18 -57 18 -113q0 -40 -12 -49q-10 -8 -47 -8h-504q-16 0 -17 -10q0 -127 76 -234q74 -104 221 -104q47 0 80 8q55 14 66 18q35 14 45 23q12 8 33 20l14 11q12 0 12 -27q0 -15 -12 -37 q-37 -51 -119 -100q-76 -45 -170 -45q-166 0 -284.5 125t-118.5 305zM236 561q0 -12 12 -12h391q8 0 8 18q0 68 -53 148q-55 84 -143 84q-104 0 -160 -90q-55 -90 -55 -148zM252 981q2 2 7 8t16.5 17.5t21.5 23.5l63 76q45 59 74 106q12 20 17 21q10 0 18 -21 q59 -92 74 -110q16 -20 49 -58q37 -41 43 -47q14 -14 14 -16q0 -47 -12 -47q-20 0 -80 45q-61 47 -106 88q-39 -39 -105 -88q-59 -45 -76 -45q-18 0 -18 47z" />
<glyph unicode="&#xeb;" horiz-adv-x="858" d="M74 418q0 211 112 332q114 123 283 122q90 0 164 -34q68 -33 106 -90q33 -51 54 -113q18 -57 18 -113q0 -40 -12 -49q-10 -8 -47 -8h-504q-16 0 -17 -10q0 -127 76 -234q74 -104 221 -104q47 0 80 8q55 14 66 18q35 14 45 23q12 8 33 20l14 11q12 0 12 -27q0 -15 -12 -37 q-37 -51 -119 -100q-76 -45 -170 -45q-166 0 -284.5 125t-118.5 305zM172 1092q0 43 31 69q33 29 71 29q40 0 68 -31q31 -35 31 -69q0 -40 -31 -68q-33 -29 -70 -29q-35 0 -69 31q-31 28 -31 68zM236 561q0 -12 12 -12h391q8 0 8 18q0 68 -53 148q-55 84 -143 84 q-104 0 -160 -90q-55 -90 -55 -148zM539 1092q0 43 30 69q33 29 70 29q41 0 70 -31q29 -33 28 -69q0 -41 -28 -68q-33 -29 -70 -29t-72 31q-28 27 -28 68z" />
<glyph unicode="&#xec;" horiz-adv-x="563" d="M27 1266q0 10 4 16q6 10 24 21q23 12 54 12q49 0 67 -19q25 -29 80 -106q33 -45 76 -115q31 -49 30 -55q0 -27 -24 -27q-20 0 -168 113q-143 111 -143 160zM57 26.5q0 24.5 9 24.5q18 0 71 15q49 12 51 26q14 55 15 139v379q0 76 -29 109q-20 23 -49 33q-25 8 -47 8 q-20 0 -21 4q0 47 13 49q207 31 276 53h4l6 2q8 0 11 -16q2 -18 0 -27q-10 -88 -11 -143v-412q0 -113 17 -178q2 -14 51 -26q57 -14 68 -15q6 0 8 -22q2 -20 -2 -35q-55 2 -109.5 5t-77 4t-26.5 1t-28 -1t-79 -4t-112 -5q-9 8 -9 32.5z" />
<glyph unicode="&#xed;" horiz-adv-x="563" d="M57 26.5q0 24.5 9 24.5q18 0 71 15q49 12 51 26q14 55 15 139v379q0 76 -29 109q-20 23 -49 33q-25 8 -47 8q-20 0 -21 4q0 47 13 49q207 31 276 53h4l6 2q8 0 11 -16q2 -18 0 -27q-10 -88 -11 -143v-412q0 -113 17 -178q2 -14 51 -26q57 -14 68 -15q6 0 8 -22 q2 -20 -2 -35q-55 2 -109.5 5t-77 4t-26.5 1t-28 -1t-79 -4t-112 -5q-9 8 -9 32.5zM141 1020q0 4 31 57q27 45 78 117q57 80 78 102q18 18 67 19q31 0 54 -12q18 -10 24 -21q4 -6 4 -16q0 -51 -141 -160q-147 -113 -170 -113q-25 0 -25 27z" />
<glyph unicode="&#xee;" horiz-adv-x="563" d="M57 26.5q0 24.5 9 24.5q18 0 71 15q49 12 51 26q14 55 15 139v379q0 76 -29 109q-20 23 -49 33q-25 8 -47 8q-20 0 -21 4q0 47 13 49q207 31 276 53h4l6 2q8 0 11 -16q2 -18 0 -27q-10 -88 -11 -143v-412q0 -113 17 -178q2 -14 51 -26q57 -14 68 -15q6 0 8 -22 q2 -20 -2 -35q-55 2 -109.5 5t-77 4t-26.5 1t-28 -1t-79 -4t-112 -5q-9 8 -9 32.5zM61 981q2 2 7.5 8l16.5 17.5t21 23.5l64 76q45 59 74 106q12 20 16 21q12 0 21 -21q68 -104 71 -110q16 -20 49 -58q37 -41 43 -47l17 -16q0 -47 -15 -47q-18 0 -77 45q-72 53 -109 88 q-39 -39 -104 -88q-59 -45 -76 -45q-19 0 -19 47z" />
<glyph unicode="&#xef;" horiz-adv-x="681" d="M123 1092q0 43 31 69q33 29 69 29q43 0 70 -31q29 -33 29 -69q0 -41 -29 -68q-33 -29 -72 -29q-35 0 -69 31q-29 27 -29 68zM143 26.5q0 24.5 9 24.5q18 0 71 15q49 12 51 26q14 55 15 139v379q0 76 -29 109q-20 23 -49 33q-25 8 -47 8q-20 0 -21 4q0 47 13 49 q207 31 276 53h4l6 2q8 0 11 -16q2 -18 0 -27q-10 -88 -11 -143v-412q0 -113 17 -178q2 -14 51 -26q57 -14 68 -15q6 0 8 -22q2 -20 -2 -35q-55 2 -109.5 5t-77 4t-26.5 1t-28 -1t-80 -4t-111 -5q-9 8 -9 32.5zM442 1092q0 43 31 69q33 29 72 29q40 0 67 -31q29 -33 29 -69 q0 -41 -29 -68q-33 -29 -69.5 -29t-71.5 31q-29 27 -29 68z" />
<glyph unicode="&#xf0;" horiz-adv-x="1026" d="M55 430q0 168 127 307.5t303 139.5q57 0 119 -19q63 -18 84 -43q-27 135 -158 272q-125 131 -387 240q0 10 11 31q9 18 18 18q102 -23 209 -71q101 -46 197 -123q104 -84 167 -170q74 -100 115 -221q43 -129 43 -271q0 -225 -110 -379q-113 -156 -283 -155 q-203 0 -328 135q-127 137 -127 309zM205 1081l508 328q43 -53 35 -61l-510 -330q-45 51 -33 63zM227 444q0 -152 78 -266.5t187 -114.5q111 0 176 109q61 102 61 264q0 190 -37 240q-92 121 -231 121q-104 0 -168 -105q-66 -107 -66 -248z" />
<glyph unicode="&#xf1;" horiz-adv-x="1085" d="M57 26.5q0 24.5 9 24.5q18 0 71 15q49 12 51 26q14 55 15 139v379q0 76 -29 109q-20 23 -49 33q-25 8 -47 8q-20 0 -21 4q0 47 13 49q207 31 276 53h4l6 2q8 0 11 -16q2 -18 0 -27q-8 -49 -9 -80q0 -8 4 -8q2 0 7 4q47 51 125 93q80 43 149 43q141 0 197 -101 q57 -104 57 -323v-183q0 -121 14 -178q2 -14 54 -26q57 -14 67 -15q6 0 8 -22q2 -20 -2 -35q-55 2 -109.5 5t-78 4t-27.5 1l-22 -1q-23 -1 -75 -4t-112 -5q-8 8 -8 32.5t8 24.5q16 0 68 15q43 12 45 26q14 55 14 139v201q0 188 -47 254q-49 68 -155 68q-63 0 -123 -47.5 t-60 -83.5v-353q0 -113 17 -178q2 -14 51 -26q57 -14 68 -15q6 0 8 -22q2 -20 -2 -35q-55 2 -109.5 5t-77 4t-26.5 1t-28 -1t-79 -4t-112 -5q-9 8 -9 32.5zM215 1044q0 55 55 99q53 41 103 41q57 0 137 -41q84 -43 137 -43q72 0 103 67q2 2 12 2q18 0 18 -30 q0 -55 -55 -98.5t-100 -43.5q-59 0 -143.5 43t-137.5 43q-68 0 -98 -69q-2 -2 -13 -2q-18 -1 -18 32z" />
<glyph unicode="&#xf2;" horiz-adv-x="1019" d="M74 432q0 182 125 313q123 129 309 129q176 0 307 -131q129 -129 129 -311q0 -184 -125 -315t-307 -131q-180 0 -309 131q-129 133 -129 315zM246 463q0 -166 86 -283t198 -117q106 0 175 101q68 102 67 239q0 166 -86 279q-86 115 -201 115q-104 0 -171.5 -98.5 t-67.5 -235.5zM315 1266q0 8 7 16q6 10 24 21q23 12 51 12q51 0 70 -19q25 -29 80 -106q33 -45 76 -115q29 -45 28 -55q0 -27 -22.5 -27t-169.5 113q-144 111 -144 160z" />
<glyph unicode="&#xf3;" horiz-adv-x="1019" d="M74 432q0 182 125 313q123 129 309 129q176 0 307 -131q129 -129 129 -311q0 -184 -125 -315t-307 -131q-180 0 -309 131q-129 133 -129 315zM246 463q0 -166 86 -283t198 -117q106 0 175 101q68 102 67 239q0 166 -86 279q-86 115 -201 115q-104 0 -171.5 -98.5 t-67.5 -235.5zM391 1020q0 2 33 57q35 59 76 117q57 80 78 102q18 18 67 19q31 0 53 -12q18 -10 25 -21q4 -6 4 -16q0 -51 -141 -160q-147 -113 -170 -113q-25 0 -25 27z" />
<glyph unicode="&#xf4;" horiz-adv-x="1019" d="M74 432q0 182 125 313q123 129 309 129q176 0 307 -131q129 -129 129 -311q0 -184 -125 -315t-307 -131q-180 0 -309 131q-129 133 -129 315zM246 463q0 -166 86 -283t198 -117q106 0 175 101q68 102 67 239q0 166 -86 279q-86 115 -201 115q-104 0 -171.5 -98.5 t-67.5 -235.5zM303 981q2 2 7 8t16.5 17.5t21.5 23.5l64 76q45 59 73 106q12 20 17 21q12 0 20 -21l72 -110q16 -20 49 -58q37 -41 43 -47l16 -16q0 -47 -14 -47q-18 0 -78 45q-72 53 -108 88q-39 -39 -105 -88q-59 -45 -75 -45q-19 0 -19 47z" />
<glyph unicode="&#xf5;" horiz-adv-x="1019" d="M74 432q0 182 125 313q123 129 309 129q176 0 307 -131q129 -129 129 -311q0 -184 -125 -315t-307 -131q-180 0 -309 131q-129 133 -129 315zM211 1042q0 57 53 98.5t103 41.5q57 0 137 -41q82 -43 137 -43q72 0 102 67q2 2 13 2q18 0 18 -30q0 -55 -55 -98.5t-101 -43.5 q-61 0 -143 43t-137 43q-68 0 -98 -69q-2 -2 -13 -2q-16 -1 -16 32zM246 463q0 -166 86 -283t198 -117q106 0 175 101q68 102 67 239q0 166 -86 279q-86 115 -201 115q-104 0 -171.5 -98.5t-67.5 -235.5z" />
<glyph unicode="&#xf6;" horiz-adv-x="1019" d="M74 432q0 182 125 313q123 129 309 129q176 0 307 -131q129 -129 129 -311q0 -184 -125 -315t-307 -131q-180 0 -309 131q-129 133 -129 315zM223 1092q0 41 33 69.5t70 28.5q43 0 69 -31q29 -33 29 -69q0 -40 -31 -68q-33 -29 -69 -29q-35 0 -70 31q-31 28 -31 68z M246 463q0 -166 86 -283t198 -117q106 0 175 101q68 102 67 239q0 166 -86 279q-86 115 -201 115q-104 0 -171.5 -98.5t-67.5 -235.5zM590 1092q0 43 31 69q33 29 71 29q41 0 70 -31q29 -33 29 -69q0 -40 -31 -68q-33 -29 -70 -29q-35 0 -69 31q-31 28 -31 68z" />
<glyph unicode="&#xf7;" horiz-adv-x="1054" d="M55 448.5q0 6.5 8 63.5q6 43 21 43h897q14 -2 14 -18q0 -33 -14 -93q-4 -8 -6 -10q-4 -4 -8 -4h-2h-897l-9 4q-4 8 -4 14.5zM426 104v9q0 37 30.5 67.5t67.5 30.5q39 0 68 -28.5t31 -67.5v-4q0 -37 -31 -68q-33 -33 -68 -33q-37 0 -67 27q-28 24 -31 67zM426 870v9 q0 39 31 65q35 31 67 31q40 0 68 -25q29 -25 31 -63v-10q0 -35 -31 -66t-68 -31q-40 0 -67 25q-27 24 -31 65z" />
<glyph unicode="&#xf8;" horiz-adv-x="1064" d="M55 432q0 182 125 313q123 129 309 129q178 0 310 -131q127 -127 127 -311t-125 -315t-307 -131q-180 0 -310 131q-129 133 -129 315zM203 27l538 847q61 -25 56 -40l-541 -850q-31 14 -44 25.5t-9 17.5zM227 463q0 -166 86 -283t199 -117q106 0 174 101q68 102 68 239 q0 166 -86 279q-86 115 -199 115q-106 0 -174 -98.5t-68 -235.5z" />
<glyph unicode="&#xf9;" horiz-adv-x="1032" d="M57 764q0 47 13 49q207 31 276 53h4l6 2q8 0 11 -16q2 -18 0 -27q-12 -95 -13 -147v-270q0 -156 45 -227.5t152 -71.5q55 0 113 47q55 46 55 80v374q0 76 -29 109q-20 23 -49 33q-25 8 -47 8q-20 0 -21 4q0 47 13 49q207 31 276 53h4l6 2q8 0 11 -16q2 -18 0 -27 q-12 -96 -13 -143v-399q0 -94 15 -154q2 -12 20 -20q12 -6 39 -11q29 -4 39 -4h18q6 -4 7 -22q0 -10 -4 -19q-6 -12 -13 -12q-41 -4 -65 -8q-49 -8 -70 -15l-28.5 -7t-30.5 -9q-29 -8 -45 -12l-19 -6q-14 0 -14 32v103l-4 8q-133 -141 -262 -141q-76 0 -127 37 q-53 37 -78 98q-27 66 -35 119q-10 66 -10 118v252q0 76 -29 109q-20 23 -49 33q-25 8 -47 8q-21 0 -21 4zM305 1266q0 8 6 16q6 10 25 21q20 12 51 12q51 0 70 -19q25 -29 80 -106q33 -45 75 -115q29 -45 29 -55q0 -27 -22.5 -27t-169.5 113q-144 111 -144 160z" />
<glyph unicode="&#xfa;" horiz-adv-x="1032" d="M57 764q0 47 13 49q207 31 276 53h4l6 2q8 0 11 -16q2 -18 0 -27q-12 -95 -13 -147v-270q0 -156 45 -227.5t152 -71.5q55 0 113 47q55 46 55 80v374q0 76 -29 109q-20 23 -49 33q-25 8 -47 8q-20 0 -21 4q0 47 13 49q207 31 276 53h4l6 2q8 0 11 -16q2 -18 0 -27 q-12 -96 -13 -143v-399q0 -94 15 -154q2 -12 20 -20q12 -6 39 -11q29 -4 39 -4h18q6 -4 7 -22q0 -10 -4 -19q-6 -12 -13 -12q-41 -4 -65 -8q-49 -8 -70 -15l-28.5 -7t-30.5 -9q-29 -8 -45 -12l-19 -6q-14 0 -14 32v103l-4 8q-133 -141 -262 -141q-76 0 -127 37 q-53 37 -78 98q-27 66 -35 119q-10 66 -10 118v252q0 76 -29 109q-20 23 -49 33q-25 8 -47 8q-21 0 -21 4zM459 1020q0 4 30 57q35 59 76 117q57 80 78 102q18 18 70 19q29 0 51 -12q18 -10 24 -21q6 -8 7 -16q0 -49 -144 -160q-147 -113 -169.5 -113t-22.5 27z" />
<glyph unicode="&#xfb;" horiz-adv-x="1032" d="M57 764q0 47 13 49q207 31 276 53h4l6 2q8 0 11 -16q2 -18 0 -27q-12 -95 -13 -147v-270q0 -156 45 -227.5t152 -71.5q55 0 113 47q55 46 55 80v374q0 76 -29 109q-20 23 -49 33q-25 8 -47 8q-20 0 -21 4q0 47 13 49q207 31 276 53h4l6 2q8 0 11 -16q2 -18 0 -27 q-12 -96 -13 -143v-399q0 -94 15 -154q2 -12 20 -20q12 -6 39 -11q29 -4 39 -4h18q6 -4 7 -22q0 -10 -4 -19q-6 -12 -13 -12q-41 -4 -65 -8q-49 -8 -70 -15l-28.5 -7t-30.5 -9q-29 -8 -45 -12l-19 -6q-14 0 -14 32v103l-4 8q-133 -141 -262 -141q-76 0 -127 37 q-53 37 -78 98q-27 66 -35 119q-10 66 -10 118v252q0 76 -29 109q-20 23 -49 33q-25 8 -47 8q-21 0 -21 4zM324 981q2 2 7 8t16 17.5l22 23.5l63 76q45 59 74 106q12 20 16 21q12 0 21 -21q68 -104 71 -110q16 -20 50 -58q37 -41 43 -47l16 -16q0 -47 -14 -47q-18 0 -78 45 q-72 53 -109 88q-39 -39 -104 -88q-59 -45 -76 -45q-18 0 -18 47z" />
<glyph unicode="&#xfc;" horiz-adv-x="1032" d="M57 764q0 47 13 49q207 31 276 53h4l6 2q8 0 11 -16q2 -18 0 -27q-12 -95 -13 -147v-270q0 -156 45 -227.5t152 -71.5q55 0 113 47q55 46 55 80v374q0 76 -29 109q-20 23 -49 33q-25 8 -47 8q-20 0 -21 4q0 47 13 49q207 31 276 53h4l6 2q8 0 11 -16q2 -18 0 -27 q-12 -96 -13 -143v-399q0 -94 15 -154q2 -12 20 -20q12 -6 39 -11q29 -4 39 -4h18q6 -4 7 -22q0 -10 -4 -19q-6 -12 -13 -12q-41 -4 -65 -8q-49 -8 -70 -15l-28.5 -7t-30.5 -9q-29 -8 -45 -12l-19 -6q-14 0 -14 32v103l-4 8q-133 -141 -262 -141q-76 0 -127 37 q-53 37 -78 98q-27 66 -35 119q-10 66 -10 118v252q0 76 -29 109q-20 23 -49 33q-25 8 -47 8q-21 0 -21 4zM244 1092q0 43 30 69q33 29 72 29q43 0 70 -31q29 -33 28 -69q0 -40 -30 -68q-33 -29 -70 -29q-35 0 -70 31q-30 28 -30 68zM610 1092q0 43 31 69q33 29 72 29 q40 0 67 -31q31 -35 31 -69q0 -40 -31 -68q-33 -29 -69.5 -29t-71.5 31q-29 27 -29 68z" />
<glyph unicode="&#xfd;" horiz-adv-x="907" d="M4 835.5q0 24.5 8 32.5q57 -2 111.5 -5t77 -4t26.5 -1q45 0 64 2q10 2 31.5 3t34 1t34 1t31.5 3q4 -16 4 -30q0 -27 -8 -27q-18 0 -53 -14q-39 -16 -41 -29v-4q0 -37 215 -522l151 438q14 41 15 61q0 31 -31 50q-35 20 -84 20q-8 0 -8 24.5t8 32.5l78 -6q70 -4 100 -4 q27 0 96 4l78 6q4 -16 4 -30q0 -27 -8 -27q-25 0 -72 -18q-41 -16 -57 -60l-358 -964q-47 -125 -105 -175q-59 -49 -106 -49q-39 0 -62 27q-20 23 -20 51q0 43 28 66q164 0 220 172l24 71q6 14 13.5 37t9.5 31l-287 700q-20 45 -39 68q-18 18 -55 30.5t-60 12.5 q-8 0 -8 24.5zM465 1020q0 4 31 57q35 59 75 117q57 80 78 102q18 18 70 19q31 0 51 -12q18 -10 25 -21q6 -8 6 -16q0 -49 -144 -160q-147 -113 -169.5 -113t-22.5 27z" />
<glyph unicode="&#xfe;" horiz-adv-x="1024" d="M84 -420q0 27 8 27q27 0 72 12q47 12 49 27q14 55 14 141v1309q0 70 -12 131q-10 31 -100 30h-19q-12 0 -12 23q0 33 12 33q68 6 111 14q39 6 80 21q28 9 49 18q12 4 29 16l10 7h4q6 0 14 -13q6 -8 10 -20q-20 -61 -20 -174v-369q0 -8 4 -8q20 16 92 43q66 25 109 24 q195 0 301 -129q106 -127 106 -274q0 -195 -133 -340t-305 -145q-37 0 -51 2q-29 4 -41 8q-6 2 -16.5 5t-12.5 3q-6 2 -26 10q-16 6 -21 11q-6 -6 -6 -27v-172q0 -121 14 -178q2 -14 54 -27q49 -12 67 -12q4 0 8 -27q2 -18 -2 -33q-55 2 -109.5 5.5t-78 4.5t-27.5 1 t-27.5 -1t-79 -4.5t-110.5 -5.5q-8 8 -8 33zM383 197q0 -55 57 -93q59 -37 125 -36q119 0 188.5 106.5t69.5 237.5q0 170 -88 266t-211 96q-63 0 -102 -32.5t-39 -96.5v-448z" />
<glyph unicode="&#xff;" horiz-adv-x="907" d="M4 835.5q0 24.5 8 32.5q57 -2 111.5 -5t77 -4t26.5 -1q45 0 64 2q10 2 31.5 3t34 1t34 1t31.5 3q4 -16 4 -30q0 -27 -8 -27q-18 0 -53 -14q-39 -16 -41 -29v-4q0 -37 215 -522l151 438q14 41 15 61q0 31 -31 50q-35 20 -84 20q-8 0 -8 24.5t8 32.5l78 -6q70 -4 100 -4 q27 0 96 4l78 6q4 -16 4 -30q0 -27 -8 -27q-25 0 -72 -18q-41 -16 -57 -60l-358 -964q-47 -125 -105 -175q-59 -49 -106 -49q-39 0 -62 27q-20 23 -20 51q0 43 28 66q164 0 220 172l24 71q6 14 13.5 37t9.5 31l-287 700q-20 45 -39 68q-18 18 -55 30.5t-60 12.5 q-8 0 -8 24.5zM219 1092q0 41 33 69.5t70 28.5q43 0 69 -31q29 -33 29 -69q0 -40 -31 -68q-33 -29 -70 -29q-35 0 -69 31q-31 28 -31 68zM586 1092q0 43 30 69q33 29 72 29q41 0 70 -31q29 -33 28 -69q0 -40 -30 -68q-33 -29 -70 -29q-35 0 -70 31q-30 28 -30 68z" />
<glyph unicode="&#x100;" d="M41 25q0 27 6 26q23 0 64 10q35 8 51 29q43 55 94 189l348 892q6 18 10 33q2 8 7.5 18.5t5.5 14.5q2 8 12 29l12 24q4 6 16.5 18.5t18.5 14.5q8 2 27 2l16 -4l401 -1057q41 -106 58 -143q12 -31 61 -49q55 -20 74 -21q8 0 8 -37q0 -4 -4 -20q-53 2 -109.5 5t-80 4 t-29.5 1l-25 -1q-25 -1 -82 -4t-124 -5q-8 8 -8.5 32.5t10.5 24.5q18 0 59 10q37 8 43 27q2 10 2 33q0 27 -6 59q-4 20 -14 58l-7 20l-82 225q-6 8 -12 9q-76 6 -151 6q-86 0 -254 -11l-11 -6l-86 -219q-35 -104 -34 -137q0 -29 16 -41t57 -23q45 -10 60 -10q6 0 6 -22 q0 -29 -2 -35q-57 2 -109.5 5t-74 4t-23.5 1q-49 0 -70 -2q-10 -2 -32.5 -3t-34.5 -1l-72 -4q-6 6 -6 31zM432 1501q0 78 29 78h500q12 0 12 -12q0 -29 -15 -70q-2 -4 -6 -8t-8 -4h-2h-496h-4q-4 0 -6 4q-4 8 -4 12zM494 606q0 -8 4 -8q139 -4 141 -4q86 0 182 6l6 10 l-161 443z" />
<glyph unicode="&#x101;" horiz-adv-x="845" d="M78 182q0 41 22 82q23 43 52 66q39 31 81 51q66 31 91 39l96 33q20 6 48 16t36 12q18 6 18 31v150q0 66 -41 100.5t-96 34.5q-57 0 -98 -41t-41 -109q0 -70 -82 -69q-55 0 -78 38q0 84 127 170t256 86q109 0 158 -53q47 -49 47 -172v-461q0 -41 22.5 -69.5t59.5 -28.5 q25 0 69 29q8 0 9 -17q0 -27 -11 -43q-82 -70 -139 -69q-43 0 -88 39q-41 35 -57 79q-2 0 -17 -14q-4 -4 -16 -13t-19 -16q-4 -2 -51 -34q-28 -18 -67 -31q-41 -12 -78 -12q-92 0 -154 49q-59 47 -59 147zM182 1044q0 74 25 74h416q10 0 10 -14q0 -20 -12 -64 q-2 -10 -15 -14h-411q-2 0 -11 4q-2 4 -2 14zM246 213q0 -55 34.5 -84t88.5 -29q55 0 102 33q51 35 51 68v205q-4 -2 -14 -6.5t-28.5 -9.5t-35.5 -11q-76 -27 -98 -37q-34 -15 -67 -49q-33 -33 -33 -80z" />
<glyph unicode="&#x102;" d="M41 25q0 27 6 26q23 0 64 10q35 8 51 29q43 55 94 189l348 892q6 18 10 33q2 8 7.5 18.5t5.5 14.5q2 8 12 29l12 24q4 6 16.5 18.5t18.5 14.5q8 2 27 2l16 -4l401 -1057q41 -106 58 -143q12 -31 61 -49q55 -20 74 -21q8 0 8 -37q0 -4 -4 -20q-53 2 -109.5 5t-80 4 t-29.5 1l-25 -1q-25 -1 -82 -4t-124 -5q-8 8 -8.5 32.5t10.5 24.5q18 0 59 10q37 8 43 27q2 10 2 33q0 27 -6 59q-4 20 -14 58l-7 20l-82 225q-6 8 -12 9q-76 6 -151 6q-86 0 -254 -11l-11 -6l-86 -219q-35 -104 -34 -137q0 -29 16 -41t57 -23q45 -10 60 -10q6 0 6 -22 q0 -29 -2 -35q-57 2 -109.5 5t-74 4t-23.5 1q-49 0 -70 -2q-10 -2 -32.5 -3t-34.5 -1l-72 -4q-6 6 -6 31zM494 606q0 -8 4 -8q139 -4 141 -4q86 0 182 6l6 10l-161 443zM500 1645q0 6 12 14q8 6 25 6q8 0 8 -2q16 -57 61 -86q49 -31 113 -31q61 0 110 31q47 31 64 86 q0 2 6 2q16 0 25 -6q12 -8 12 -14v-7q0 -2 -1 -5l-1 -3q-16 -74 -75.5 -127t-139.5 -53q-78 0 -141 53q-59 51 -76 129v6z" />
<glyph unicode="&#x103;" horiz-adv-x="845" d="M78 182q0 41 22 82q23 43 52 66q39 31 81 51q66 31 91 39l96 33q20 6 48 16t36 12q18 6 18 31v150q0 66 -41 100.5t-96 34.5q-57 0 -98 -41t-41 -109q0 -70 -82 -69q-55 0 -78 38q0 84 127 170t256 86q109 0 158 -53q47 -49 47 -172v-461q0 -41 22.5 -69.5t59.5 -28.5 q25 0 69 29q8 0 9 -17q0 -27 -11 -43q-82 -70 -139 -69q-43 0 -88 39q-41 35 -57 79q-2 0 -17 -14q-4 -4 -16 -13t-19 -16q-4 -2 -51 -34q-28 -18 -67 -31q-41 -12 -78 -12q-92 0 -154 49q-59 47 -59 147zM188 1210q0 6 13 17q14 10 22 10t8 -6q14 -63 65.5 -104.5 t109.5 -41.5q59 0 110 41q47 39 64 105q0 6 8 6t22.5 -10t14.5 -17l-2 -8v-8q-16 -84 -76 -141q-63 -59 -141 -59.5t-142 59.5q-57 55 -74 143l-1 3q-1 3 -1 5v6zM246 213q0 -55 34.5 -84t88.5 -29q55 0 102 33q51 35 51 68v205q-4 -2 -14 -6.5t-28.5 -9.5t-35.5 -11 q-76 -27 -98 -37q-34 -15 -67 -49q-33 -33 -33 -80z" />
<glyph unicode="&#x104;" horiz-adv-x="1490" d="M92 25q0 27 8 26q20 0 62 10q35 8 51 29q43 55 94 189l348 892l5 13q5 12 7.5 20l5.5 18.5t5 14.5q2 8 12 29q6 12 14.5 24.5t14.5 18.5q12 12 20.5 14t24.5 2l18 -4l400 -1057q41 -106 57 -143q12 -31 64 -49q55 -20 73 -21q8 0 8 -37q0 -4 -4 -20q-53 4 -198 10 q-82 -49 -144 -117q-63 -70 -63 -129q0 -35 16 -59q18 -27 66 -27q45 0 82 19q29 14 57 39q20 18 23 18q10 0 10 -27q0 -18 -10 -34q-102 -133 -211 -133q-74 0 -109 51q-33 47 -33 102q0 78 68 158q72 84 156 139q-37 -2 -78 -4q-51 -4 -84 -6q-6 6 -6 33q0 25 8 24 q18 0 59 10q37 8 43 27q4 20 4 33q0 14 -8 59l-12 58l-8 20l-82 225q-6 8 -13 9q-78 6 -151 6q-86 0 -254 -11l-10 -6l-86 -219q-33 -98 -33 -137q0 -29 14.5 -41t59.5 -22.5t57 -10.5q6 0 6 -22q0 -29 -2 -35q-57 2 -109.5 5t-74 4t-23.5 1q-49 0 -69 -2q-10 -2 -33 -3 t-35 -1l-70 -4q-8 8 -8 31zM547 606q0 -8 4 -8q139 -4 141 -4q86 0 182 6l7 10l-162 443z" />
<glyph unicode="&#x105;" horiz-adv-x="835" d="M100 182q0 41 23 82q23 43 51 66q39 31 82 51q70 33 88 39l98 33q20 6 48 16t36 12q18 6 19 31v150q0 66 -41 100.5t-96 34.5q-59 0 -101 -41q-39 -39 -39 -108.5t-82 -69.5q-55 0 -77 38q0 84 124 170q127 86 256 86q109 0 158 -53t49 -172v-461q0 -39 23 -71 q23 -31 59 -31q16 0 33 6q8 4 25 14q2 2 6 5q4 4 6 4q10 0 10 -11q0 -25 -12 -51l-66 -45l-43 -29q-16 -10 -25.5 -17t-15.5 -11t-10 -8q-37 -29 -45 -37q-23 -20 -45 -47q-14 -16 -27 -45q-14 -33 -14 -54q0 -33 18.5 -59.5t65.5 -26.5q45 0 82 19q29 14 57 39q20 18 23 18 q10 0 10 -27q0 -18 -10 -34q-102 -133 -211 -133q-74 0 -109 51q-33 47 -32 102q0 63 61 143q63 82 141 146q-68 39 -92 110l-14 -14q-4 -4 -16.5 -13t-18.5 -16q-4 -2 -51 -34q-28 -18 -68 -30.5t-80 -12.5q-90 0 -151 49q-60 47 -60 147zM268 213q0 -57 33 -84 q35 -29 88 -29q57 0 105 33q51 35 51 68v205q-4 -2 -14.5 -6.5t-29 -9.5t-34.5 -11q-76 -27 -98 -37q-34 -15 -68 -49q-33 -33 -33 -80z" />
<glyph unicode="&#x106;" horiz-adv-x="1310" d="M88 643q0 285 190.5 487.5t464.5 202.5q240 0 488 -49q0 -78 -1 -147.5t-2 -103.5t-1 -38q0 -29 -43 -28q-20 0 -27 10q-8 33 -14 51q-10 31 -37 72q-25 37 -72 74q-41 33 -114 53q-78 23 -170 22q-197 0 -334 -172q-137 -170 -137 -391q0 -164 55 -299q53 -131 178 -223 q121 -90 287 -90q197 0 305 116q29 33 49 78q18 41 33 82q12 35 16 35t29 -4q14 -2 26 -10l11 -4q0 -16 -29 -154q-27 -131 -39 -137q-145 -88 -477 -88q-266 0 -451 194q-184 194 -184 461zM702 1483q0 12 93 102q106 102 145 131q12 6 37 6q53 0 77.5 -18t24.5 -41 q0 -47 -159.5 -127t-196.5 -80q-21 0 -21 27z" />
<glyph unicode="&#x107;" horiz-adv-x="808" d="M74 418q0 186 100 319q101 135 289 135q219 0 303 -102q0 -133 -74 -133q-37 0 -53 14.5t-45 55.5q-61 92 -148 92q-82 0 -149.5 -78t-67.5 -234q0 -160 80 -266q78 -104 219 -104q47 0 80 8q55 14 66 18q35 14 45 23q12 8 33 20l14 11q12 0 12 -27q0 -15 -12 -37 q-37 -51 -119 -100q-76 -45 -170 -45q-166 0 -284.5 125t-118.5 305zM379 1020q0 4 31 57q35 59 75 117q57 80 78 102q18 18 70 19q31 0 51 -12q18 -10 25 -21q6 -8 6 -16q0 -49 -144 -160q-147 -113 -169.5 -113t-22.5 27z" />
<glyph unicode="&#x108;" horiz-adv-x="1310" d="M88 643q0 285 190.5 487.5t464.5 202.5q240 0 488 -49q0 -78 -1 -147.5t-2 -103.5t-1 -38q0 -29 -43 -28q-20 0 -27 10q-8 33 -14 51q-10 31 -37 72q-25 37 -72 74q-41 33 -114 53q-78 23 -170 22q-197 0 -334 -172q-137 -170 -137 -391q0 -164 55 -299q53 -131 178 -223 q121 -90 287 -90q197 0 305 116q29 33 49 78q18 41 33 82q12 35 16 35t29 -4q14 -2 26 -10l11 -4q0 -16 -29 -154q-27 -131 -39 -137q-145 -88 -477 -88q-266 0 -451 194q-184 194 -184 461zM557 1436l8 8t18.5 17.5t24.5 21.5l72 65q57 55 84 92q16 16 20 17q12 0 23 -17 q49 -63 82 -96q8 -6 22.5 -20.5t32.5 -30.5l49 -41q18 -14 19 -16q0 -39 -19 -39q-39 0 -209 114q-47 -35 -118 -75q-70 -39 -88 -39q-21 0 -21 39z" />
<glyph unicode="&#x109;" horiz-adv-x="808" d="M74 418q0 186 100 319q101 135 289 135q219 0 303 -102q0 -133 -74 -133q-37 0 -53 14.5t-45 55.5q-61 92 -148 92q-82 0 -149.5 -78t-67.5 -234q0 -160 80 -266q78 -104 219 -104q47 0 80 8q55 14 66 18q35 14 45 23q12 8 33 20l14 11q12 0 12 -27q0 -15 -12 -37 q-37 -51 -119 -100q-76 -45 -170 -45q-166 0 -284.5 125t-118.5 305zM244 981q2 2 7 8t16.5 17.5t21.5 23.5l63 76q45 59 74 106q12 20 16 21q12 0 21 -21l72 -110q16 -20 49 -58q37 -41 43 -47q14 -14 14 -16q0 -47 -12 -47q-18 0 -78 45q-72 53 -109 88q-39 -39 -104 -88 q-59 -45 -76 -45q-18 0 -18 47z" />
<glyph unicode="&#x10a;" horiz-adv-x="1310" d="M88 643q0 285 190.5 487.5t464.5 202.5q240 0 488 -49q0 -78 -1 -147.5t-2 -103.5t-1 -38q0 -29 -43 -28q-20 0 -27 10q-8 33 -14 51q-10 31 -37 72q-25 37 -72 74q-41 33 -114 53q-78 23 -170 22q-197 0 -334 -172q-137 -170 -137 -391q0 -164 55 -299q53 -131 178 -223 q121 -90 287 -90q197 0 305 116q29 33 49 78q18 41 33 82q12 35 16 35t29 -4q14 -2 26 -10l11 -4q0 -16 -29 -154q-27 -131 -39 -137q-145 -88 -477 -88q-266 0 -451 194q-184 194 -184 461zM653 1556q0 41 29 70q31 31 72 31t71 -31q29 -29 29 -70q0 -43 -28.5 -71.5 t-71.5 -28.5t-72 28.5t-29 71.5z" />
<glyph unicode="&#x10b;" horiz-adv-x="808" d="M74 418q0 186 100 319q101 135 289 135q219 0 303 -102q0 -133 -74 -133q-37 0 -53 14.5t-45 55.5q-61 92 -148 92q-82 0 -149.5 -78t-67.5 -234q0 -160 80 -266q78 -104 219 -104q47 0 80 8q55 14 66 18q35 14 45 23q12 8 33 20l14 11q12 0 12 -27q0 -15 -12 -37 q-37 -51 -119 -100q-76 -45 -170 -45q-166 0 -284.5 125t-118.5 305zM356 1186q0 43 29 71.5t72 28.5q41 0 69.5 -28.5t28.5 -71.5t-28.5 -72t-69.5 -29q-43 0 -72 29t-29 72z" />
<glyph unicode="&#x10c;" horiz-adv-x="1310" d="M88 643q0 285 190.5 487.5t464.5 202.5q240 0 488 -49q0 -78 -1 -147.5t-2 -103.5t-1 -38q0 -29 -43 -28q-20 0 -27 10q-8 33 -14 51q-10 31 -37 72q-25 37 -72 74q-41 33 -114 53q-78 23 -170 22q-197 0 -334 -172q-137 -170 -137 -391q0 -164 55 -299q53 -131 178 -223 q121 -90 287 -90q197 0 305 116q29 33 49 78q18 41 33 82q12 35 16 35t29 -4q14 -2 26 -10l11 -4q0 -16 -29 -154q-27 -131 -39 -137q-145 -88 -477 -88q-266 0 -451 194q-184 194 -184 461zM526 1675q0 41 21 41q16 0 88 -41q63 -37 117 -76q172 117 211 117q18 0 18 -41 l-2 -2q-2 -2 -7 -5t-9 -7q-4 -2 -13.5 -10.5t-18.5 -15.5t-18 -15l-57 -51q-33 -33 -82 -96q-10 -16 -22 -17q-4 0 -21 17q-27 37 -84 92l-69 63q-10 8 -19.5 17.5l-14.5 14.5t-10.5 9t-7.5 6z" />
<glyph unicode="&#x10d;" horiz-adv-x="808" d="M74 418q0 186 100 319q101 135 289 135q219 0 303 -102q0 -133 -74 -133q-37 0 -53 14.5t-45 55.5q-61 92 -148 92q-82 0 -149.5 -78t-67.5 -234q0 -160 80 -266q78 -104 219 -104q47 0 80 8q55 14 66 18q35 14 45 23q12 8 33 20l14 11q12 0 12 -27q0 -15 -12 -37 q-37 -51 -119 -100q-76 -45 -170 -45q-166 0 -284.5 125t-118.5 305zM266 1245q0 47 19 47q16 0 75 -45q66 -49 105 -88q45 41 106 88q59 45 78 45q16 0 17 -47l-17 -16q-8 -8 -18 -20.5t-25 -26.5q-49 -53 -51 -58l-72 -110q-8 -18 -16 -19q-9 0 -18 19q-25 43 -74 104 l-34 40t-32 36q-39 47 -43 51z" />
<glyph unicode="&#x10e;" horiz-adv-x="1443" d="M68 1282q0 27 8 35q139 -4 237 -4q117 0 195 2t154 2q326 0 508 -192.5t182 -452.5q0 -291 -185 -484q-184 -195 -508 -194q-6 0 -24.5 1t-52 2t-66.5 1q-152 4 -199 2l-241 -6q-6 6 -6 31q0 27 6 26q29 0 78 15q51 14 59 32q14 23 14 189v755q0 121 -14 172 q-6 14 -57 29q-49 14 -80 14q-8 0 -8 25zM401 279q0 -84 31 -152q10 -23 107 -31q109 -10 153 -10q459 0 459 594q0 225 -121 387t-352 162h-10q-213 0 -240 -33q-27 -41 -27 -127v-790zM492 1675q0 41 20 41q16 0 88 -41t119 -76q172 117 209 117q18 0 18 -41l-2 -2 q-2 -2 -7 -5t-9 -7q-4 -2 -13.5 -10.5t-18.5 -15.5t-17 -15l-58 -51q-31 -33 -82 -96q-10 -16 -20 -17q-4 0 -21 17q-27 37 -84 92l-71 63q-10 8 -19.5 17.5l-14.5 14.5t-10 9t-7 6z" />
<glyph unicode="&#x10f;" horiz-adv-x="993" d="M76 391q0 197 137 342q139 147 309 148q84 0 150 -35q14 0 14 37v215q0 68 -12 129q-10 31 -103 30h-16q-12 0 -12 23q0 33 12 33q68 6 111 14q39 6 79 21q28 9 50 18q12 4 28 16l8 7h5q8 0 16 -13q6 -8 10 -20q-23 -68 -22 -174v-899q0 -98 12 -154q2 -10 22 -20 q12 -6 37 -10.5t37 -4.5h19q6 -3 6 -24q0 -29 -12 -29q-47 -4 -68 -8q-12 -2 -35.5 -7.5t-34.5 -7.5q-12 -2 -34.5 -8t-26.5 -6q-43 -10 -45 -10l-19 -6q-12 0 -12 35v22q0 6 -2 8t-6 0q-111 -61 -211 -61q-166 0 -278.5 118.5t-112.5 280.5zM248 451q0 -145 78 -254 q76 -106 217 -107q68 0 104 31q39 33 39 84v475q0 43 -45 80q-47 37 -145 37q-119 0 -183 -105q-65 -106 -65 -241zM944 1038l19 17q14 14 34 51q16 31 17 72q0 10 -23 45q-20 33 -20 61q0 46 37 74q39 29 98 28q31 -37 31 -124q0 -63 -56 -144q-57 -82 -96 -104 q-2 -2 -12 -2q-8 0 -18.5 10t-10.5 16z" />
<glyph unicode="&#x110;" horiz-adv-x="1460" d="M160 1282q0 27 8 35q139 -4 238 -4q113 0 192.5 2t155.5 2q326 0 508 -192.5t182 -452.5q0 -291 -184 -484q-184 -195 -508 -194q-6 0 -24.5 1t-53.5 2t-68 1q-152 4 -196 2l-242 -6q-6 6 -6 31q0 27 6 26q29 0 78 15q51 14 59 32q14 23 14 189v755q0 121 -14 172 q-6 14 -57 29q-49 14 -80 14q-8 0 -8 25zM188 641q0 37 13 55h690q10 0 10 -20q0 -37 -10 -60h-692q-11 0 -11 25zM494 279q0 -84 30 -152q10 -23 107 -31q109 -10 153 -10q227 0 349 152q119 150 118 442q0 229 -125 387q-127 162 -356 162h-10q-213 0 -240 -33 q-27 -41 -26 -127v-790z" />
<glyph unicode="&#x111;" horiz-adv-x="980" d="M61 391q0 197 138 342q137 147 309 148q84 0 149 -35q14 0 15 37v215q0 68 -13 129q-8 31 -102 30h-16q-12 0 -13 23q0 33 13 33q68 6 110 14q39 6 80 21q28 9 49 18q12 4 29 16l8 7h4q6 0 17 -13q6 -8 10 -20q-23 -68 -23 -174v-899q0 -98 13 -154q2 -10 22 -20 q12 -6 37 -10.5t37 -4.5h18q6 -3 6 -24q0 -29 -12 -29q-45 -4 -67 -8q-14 -2 -37 -7.5t-33 -7.5q-12 -2 -34.5 -8t-26.5 -6q-43 -10 -46 -10l-18 -6q-12 0 -12 35v22q0 6 -2 8t-6 0q-111 -61 -211 -61q-166 0 -279 118.5t-113 280.5zM233 451q0 -145 78 -254 q76 -106 217 -107q70 0 107 31t37 84v475q0 43 -45 80t-146 37q-117 0 -182 -105q-66 -106 -66 -241zM412 1083q0 37 12 56h530q12 0 13 -21q0 -35 -13 -59h-532q-10 -1 -10 24z" />
<glyph unicode="&#x112;" horiz-adv-x="1140" d="M113 1282q0 27 8 35q139 -4 237 -4q115 0 312 8q147 6 334 6q8 -51 30 -151q6 -27 13.5 -54.5l11.5 -43t4 -21.5q-10 -10 -37 -10t-29 14q-31 109 -84 139q-59 33 -147 33h-133q-172 0 -176 -27q-10 -55 -11 -168v-319q0 -12 86 -12h107h80q29 0 53 8q10 4 22.5 7t14.5 3 q10 4 20 25l15 34q0 2 2 11.5t5 20.5l7 26q2 14 31 14q23 0 33 -10v-377q-8 -8 -31 -8q-27 0 -33 14l-24 82q-10 29 -15 33l-16 12q-27 16 -213 16q-143 0 -144 -18v-309q0 -131 19 -182q6 -20 135 -21h96q186 0 252 35q31 16 68 70q35 53 57 131q4 12 29 12q37 0 49 -12 l-31 -82l-33 -92q-4 -12 -12 -40l-12 -42q-16 -47 -19 -76q-29 0 -323.5 4t-358.5 4l-241 -6q-6 6 -6 33q0 25 6 24q27 0 76 15q53 16 61 32q14 23 14 189v755q0 121 -14 172q-4 12 -59 29q-49 14 -78 14q-8 0 -8 25zM324 1501q0 78 28 78h500q12 0 12 -12q0 -29 -14 -70 q-2 -4 -6 -8t-6 -4h-4h-496h-4q-4 0 -6 4q-4 8 -4 12z" />
<glyph unicode="&#x113;" horiz-adv-x="907" d="M102 418q0 211 113 332q114 123 283 122q88 0 161 -34q72 -35 109 -90q33 -51 53 -113q16 -51 17 -113q0 -40 -13 -49q-10 -8 -45 -8h-504q-16 0 -16 -10q0 -127 76 -234q74 -104 219 -104q49 0 82 8q51 12 63 18q41 18 48 23q12 8 32 20l15 11q12 0 12 -27 q0 -15 -12 -37q-37 -51 -119 -100q-76 -45 -170 -45q-166 0 -285 125t-119 305zM223 1044q0 74 25 74h416q10 0 10 -14q0 -20 -12 -64q-2 -10 -15 -14h-411l-9 4q-4 8 -4 14zM264 561q0 -12 12 -12h390q10 0 10 18q0 68 -53 148q-55 84 -146 84q-102 0 -158 -90 q-55 -90 -55 -148z" />
<glyph unicode="&#x114;" horiz-adv-x="1140" d="M57 1282q0 27 9 35q139 -4 237 -4q117 0 313 8q147 6 334 6q8 -51 31 -151q27 -117 27 -119q-10 -10 -35 -10q-27 0 -29 14q-31 109 -84 139q-59 33 -147 33h-135q-172 0 -177 -27q-10 -55 -10 -168v-319q0 -12 86 -12h107h82q29 0 53 8q10 4 21.5 7t13.5 3q10 4 20 25 q16 31 17 34q0 2 2 11.5t5 20.5l7 26q2 14 29 14q25 0 34 -10v-377q-8 -8 -32.5 -8t-30.5 14q-14 49 -25 82q-10 29 -14 33q-2 2 -8 6t-10 6q-27 16 -211 16q-145 0 -146 -18v-309q0 -131 19 -182q6 -20 137 -21h94q188 0 254 35q29 14 66 70q39 59 59 131q4 12 29 12 q37 0 49 -12l-31 -82l-33 -92l-13 -41l-13 -41q-16 -47 -19 -76q-27 0 -321.5 4t-360.5 4l-241 -6q-6 6 -7 33q0 25 7 24q29 0 77 15q53 16 62 32q12 20 12 189v755q0 127 -12 172q-4 12 -60 29q-49 14 -79 14q-9 0 -9 25zM352 1645q0 6 13 14q8 6 22 6q8 0 8 -2 q16 -55 64 -86q49 -31 110 -31q63 0 113 31q45 29 61 86q0 2 9 2q14 0 22 -6q14 -10 14 -14l-2 -7v-8q-16 -74 -75.5 -127t-141.5 -53q-78 0 -141 53q-57 49 -74 129l-1 2q-1 2 -1 4v7z" />
<glyph unicode="&#x115;" horiz-adv-x="858" d="M74 418q0 211 112 332q114 123 283 122q90 0 164 -34q68 -33 106 -90q33 -51 54 -113q18 -57 18 -113q0 -40 -12 -49q-10 -8 -47 -8h-504q-16 0 -17 -10q0 -127 76 -234q74 -104 221 -104q47 0 80 8q55 14 66 18q35 14 45 23q12 8 33 20l14 11q12 0 12 -27q0 -15 -12 -37 q-37 -51 -119 -100q-76 -45 -170 -45q-166 0 -284.5 125t-118.5 305zM227 1210q0 6 14.5 16.5t22.5 10.5t8 -6q16 -66 64 -105q51 -41 110 -41q57 0 108.5 41t66.5 105q0 6 8 6t22 -10q12 -10 13 -17v-8q0 -2 -1 -5l-1 -3q-16 -86 -74 -141q-63 -59 -141 -59.5t-142 59.5 q-61 57 -76 143v8zM236 561q0 -12 12 -12h391q8 0 8 18q0 68 -53 148q-55 84 -143 84q-104 0 -160 -90q-55 -90 -55 -148z" />
<glyph unicode="&#x116;" horiz-adv-x="1140" d="M57 1282q0 27 9 35q139 -4 237 -4q117 0 313 8q147 6 334 6q8 -51 31 -151q27 -117 27 -119q-10 -10 -35 -10q-27 0 -29 14q-31 109 -84 139q-59 33 -147 33h-135q-172 0 -177 -27q-10 -55 -10 -168v-319q0 -12 86 -12h107h82q29 0 53 8q10 4 21.5 7t13.5 3q10 4 20 25 q16 31 17 34q0 2 2 11.5t5 20.5l7 26q2 14 29 14q25 0 34 -10v-377q-8 -8 -32.5 -8t-30.5 14q-14 49 -25 82q-10 29 -14 33q-2 2 -8 6t-10 6q-27 16 -211 16q-145 0 -146 -18v-309q0 -131 19 -182q6 -20 137 -21h94q188 0 254 35q29 14 66 70q39 59 59 131q4 12 29 12 q37 0 49 -12l-31 -82l-33 -92l-13 -41l-13 -41q-16 -47 -19 -76q-27 0 -321.5 4t-360.5 4l-241 -6q-6 6 -7 33q0 25 7 24q29 0 77 15q53 16 62 32q12 20 12 189v755q0 127 -12 172q-4 12 -60 29q-49 14 -79 14q-9 0 -9 25zM465 1556q0 41 29 70q31 31 69 31q41 0 72 -31 q29 -29 29 -70q0 -43 -29 -71.5t-72 -28.5q-41 0 -69.5 28.5t-28.5 71.5z" />
<glyph unicode="&#x117;" horiz-adv-x="858" d="M74 418q0 211 112 332q114 123 283 122q90 0 164 -34q68 -33 106 -90q33 -51 54 -113q18 -57 18 -113q0 -40 -12 -49q-10 -8 -47 -8h-504q-16 0 -17 -10q0 -127 76 -234q74 -104 221 -104q47 0 80 8q55 14 66 18q35 14 45 23q12 8 33 20l14 11q12 0 12 -27q0 -15 -12 -37 q-37 -51 -119 -100q-76 -45 -170 -45q-166 0 -284.5 125t-118.5 305zM236 561q0 -12 12 -12h391q8 0 8 18q0 68 -53 148q-55 84 -143 84q-104 0 -160 -90q-55 -90 -55 -148zM358 1186q0 43 29 71.5t72 28.5q41 0 69.5 -28.5t28.5 -71.5t-28.5 -72t-69.5 -29q-43 0 -72 29 t-29 72z" />
<glyph unicode="&#x118;" horiz-adv-x="1222" d="M96 1282q0 27 8 35q139 -4 238 -4q16 0 311 4t334 4q4 -29 33 -154q27 -117 27 -118q-10 -10 -37 -10.5t-29 14.5q-31 113 -84 141q-55 31 -147 31h-134q-172 0 -176 -27q-10 -55 -10 -168v-319q0 -12 86 -13h107h79q29 0 54 9q10 4 22.5 7t14.5 3q10 4 20 24 q10 23 14 35q0 2 2 11.5t5.5 20.5t7.5 26q2 14 30 14q23 0 33 -10v-377q-8 -8 -31 -8q-27 0 -32 16q-10 37 -25 80q-10 29 -14 33l-17 12q-27 16 -213 16q-143 0 -143 -18v-309q0 -131 19 -183q6 -20 135 -20h96q186 0 252 35q31 16 67 69q39 59 60 131q2 12 26 13 q39 0 52 -13l-39 -102q-39 -104 -47 -133q-18 -59 -23 -92q-86 0 -170 -82t-84 -150q0 -31 19 -59q18 -27 63 -27t82 19q29 14 57 39q20 18 23 18q8 0 8 -26.5t-8 -34.5q-102 -133 -209 -134q-74 0 -108.5 51.5t-34.5 102.5q0 74 61 150q55 70 147 135q-518 10 -528 10 l-242 -6q-6 6 -6 33q0 25 6 24q27 0 76 15q53 16 62 32q14 23 14 189v755q0 121 -14 172q-4 12 -60 29q-49 14 -78 14q-8 0 -8 25z" />
<glyph unicode="&#x119;" horiz-adv-x="821" d="M47 418q0 207 115 332q114 123 282 122q88 0 162 -34q68 -33 107 -90q37 -55 55 -113q16 -51 16 -113q0 -40 -12 -49q-10 -8 -47 -8h-504q-14 0 -14 -10q0 -127 76 -234q74 -104 219 -104q47 0 80 8q55 14 65 18q33 14 45.5 22.5t32.5 20.5l14 11q12 0 13 -27 q0 -15 -13 -37q-33 -47 -86 -82q-100 -72 -155 -143q-51 -66 -52 -152q0 -31 19 -59q18 -27 63 -27t82 19q29 14 58 39q20 18 22 18q8 0 8 -26.5t-8 -34.5q-102 -133 -211 -134q-72 0 -106.5 51.5t-34.5 102.5q0 57 47 139t111 146h-9q-2 0 -8 -1t-10 -1h-16 q-166 0 -285 125q-121 127 -121 305zM211 561q0 -12 10 -12h391q10 0 11 18q0 65 -56 148q-55 84 -143 84q-104 0 -160 -90q-53 -87 -53 -148z" />
<glyph unicode="&#x11a;" horiz-adv-x="1140" d="M57 1282q0 27 9 35q139 -4 237 -4q117 0 313 8q147 6 334 6q8 -51 31 -151q27 -117 27 -119q-10 -10 -35 -10q-27 0 -29 14q-31 109 -84 139q-59 33 -147 33h-135q-172 0 -177 -27q-10 -55 -10 -168v-319q0 -12 86 -12h107h82q29 0 53 8q10 4 21.5 7t13.5 3q10 4 20 25 q16 31 17 34q0 2 2 11.5t5 20.5l7 26q2 14 29 14q25 0 34 -10v-377q-8 -8 -32.5 -8t-30.5 14q-14 49 -25 82q-10 29 -14 33q-2 2 -8 6t-10 6q-27 16 -211 16q-145 0 -146 -18v-309q0 -131 19 -182q6 -20 137 -21h94q188 0 254 35q29 14 66 70q39 59 59 131q4 12 29 12 q37 0 49 -12l-31 -82l-33 -92l-13 -41l-13 -41q-16 -47 -19 -76q-27 0 -321.5 4t-360.5 4l-241 -6q-6 6 -7 33q0 25 7 24q29 0 77 15q53 16 62 32q12 20 12 189v755q0 127 -12 172q-4 12 -60 29q-49 14 -79 14q-9 0 -9 25zM362 1675q0 41 21 41q14 0 86 -41t119 -76 q172 117 211 117q16 0 16 -41l-16 -14q-4 -2 -13.5 -10.5t-18.5 -15.5t-17 -15l-58 -51q-33 -33 -82 -96q-10 -16 -22 -17q-4 0 -21 17q-27 37 -84 92l-69 63q-10 8 -19.5 17.5l-14.5 14.5t-10.5 9t-7.5 6z" />
<glyph unicode="&#x11b;" horiz-adv-x="858" d="M74 418q0 211 112 332q114 123 283 122q90 0 164 -34q68 -33 106 -90q33 -51 54 -113q18 -57 18 -113q0 -40 -12 -49q-10 -8 -47 -8h-504q-16 0 -17 -10q0 -127 76 -234q74 -104 221 -104q47 0 80 8q55 14 66 18q35 14 45 23q12 8 33 20l14 11q12 0 12 -27q0 -15 -12 -37 q-37 -51 -119 -100q-76 -45 -170 -45q-166 0 -284.5 125t-118.5 305zM236 561q0 -12 12 -12h391q8 0 8 18q0 68 -53 148q-55 84 -143 84q-104 0 -160 -90q-55 -90 -55 -148zM250 1245q0 47 18 47q16 0 76 -45q66 -49 105 -88q45 41 106 88q59 45 80 45q14 0 14 -47 q0 -2 -14 -16l-45 -47q-33 -37 -49 -58l-72 -110q-9 -18 -18.5 -18.5t-18.5 18.5q-25 43 -74 104l-63 76q-8 10 -16.5 19.5t-13.5 14.5t-9 10t-6 7z" />
<glyph unicode="&#x11c;" horiz-adv-x="1429" d="M88 643q0 285 190.5 487.5t464.5 202.5q139 0 476 -90q8 -203 8 -248q0 -29 -43 -28q-20 0 -27 10q-55 272 -407 272q-199 0 -334 -170q-133 -166 -133 -409q0 -225 145 -410q147 -186 371 -186q174 0 260 45q12 4 12 28l-2 164v15q0 131 -14 172q-8 20 -66 32 q-59 12 -90 13q-6 0 -6 24q0 27 6 33q74 -2 139.5 -5t93 -4t29.5 -1q4 0 27.5 1t80 4t109.5 5q4 -16 4 -29q0 -29 -8 -28q-6 0 -55 -15q-39 -10 -62 -22q-20 -14 -20 -133q0 -27 4 -92q2 -33 2 -54q0 -39 14.5 -69.5t14.5 -38.5q0 -15 -49 -37l-39 -14q-12 -4 -27.5 -11.5 t-17.5 -7.5t-9.5 -2t-16.5 -5t-19 -7q-29 -10 -58 -15l-59 -12q-25 -6 -74 -10q-29 -2 -82 -6q-61 -4 -98 -4q-266 0 -451 194q-184 194 -184 461zM530 1436q2 2 8.5 8l18.5 17.5t25 21.5l69 65q57 55 84 92q16 16 21 17q12 0 22 -17q49 -63 82 -96l58 -51l49 -41 q16 -14 16 -16q0 -39 -16 -39q-41 0 -211 114q-53 -39 -117 -75q-70 -39 -88 -39q-21 0 -21 39z" />
<glyph unicode="&#x11d;" horiz-adv-x="946" d="M57 -231q0 121 197 211q-55 10 -100 51q-45 43 -45 100q0 55 45 109q47 57 100 92q-57 20 -111 94q-51 72 -51 158q0 119 98 198q100 82 244 82q68 0 164 -26.5t164 -26.5h117q12 -3 12 -49q0 -29 -12 -29h-144q-8 0 -8 -6l23 -47q20 -47 20 -96q0 -109 -96 -195 t-236 -86q-70 0 -112 8q-35 -23 -56 -49q-29 -39 -28.5 -63.5t16.5 -44.5q16 -18 45 -25q41 -8 59.5 -10t65.5 -2h14q242 -2 349 -51q100 -45 100 -142q0 -154 -131 -266q-127 -109 -334 -113q-137 -2 -256 56q-113 55 -113 168zM199 -188q0 -88 88 -140q90 -53 196 -53 q121 0 199 66q76 63 76 145q0 86 -82 113q-86 29 -326 28l-12 -4q-2 -2 -19 -8q-4 -2 -10 -4q-8 -2 -10 -4q-6 -6 -16 -12q-8 -4 -13.5 -8.5t-7.5 -4.5l-16 -12q-14 -10 -17 -14q-6 -12 -12 -18.5t-10 -18.5l-6 -25q-2 -8 -2 -26zM229 1040q2 2 7.5 8.5t16.5 18.5t21 25 q6 6 30 33.5l34 39.5q45 59 74 107q12 20 16 20q12 0 21 -20q68 -104 71 -111q16 -20 49 -57q18 -20 43 -45q16 -16 17 -19q0 -47 -15 -47q-18 0 -77 45q-72 53 -109 88q-39 -39 -104 -88q-59 -45 -76 -45q-19 0 -19 47zM246 592q0 -92 57 -155.5t133 -63.5q78 0 129 59.5 t51 142.5q0 92 -57 156q-59 66 -133 66q-77 0 -129 -62q-51 -59 -51 -143z" />
<glyph unicode="&#x11e;" horiz-adv-x="1429" d="M88 643q0 285 190.5 487.5t464.5 202.5q139 0 476 -90q8 -203 8 -248q0 -29 -43 -28q-20 0 -27 10q-55 272 -407 272q-199 0 -334 -170q-133 -166 -133 -409q0 -225 145 -410q147 -186 371 -186q174 0 260 45q12 4 12 28l-2 164v15q0 131 -14 172q-8 20 -66 32 q-59 12 -90 13q-6 0 -6 24q0 27 6 33q74 -2 139.5 -5t93 -4t29.5 -1q4 0 27.5 1t80 4t109.5 5q4 -16 4 -29q0 -29 -8 -28q-6 0 -55 -15q-39 -10 -62 -22q-20 -14 -20 -133q0 -27 4 -92q2 -33 2 -54q0 -39 14.5 -69.5t14.5 -38.5q0 -15 -49 -37l-39 -14q-12 -4 -27.5 -11.5 t-17.5 -7.5t-9.5 -2t-16.5 -5t-19 -7q-29 -10 -58 -15l-59 -12q-25 -6 -74 -10q-29 -2 -82 -6q-61 -4 -98 -4q-266 0 -451 194q-184 194 -184 461zM537 1645q0 6 12 14q8 6 22 6q8 0 9 -2q16 -57 61 -86q49 -31 112.5 -31t112.5 31q45 29 62 86q0 2 8 2q14 0 22 -6 q14 -10 15 -14l-2 -7v-8q-16 -74 -75.5 -127t-141.5 -53q-78 0 -142 53q-57 49 -73 129l-1 2q-1 2 -1 4v7z" />
<glyph unicode="&#x11f;" horiz-adv-x="946" d="M57 -231q0 121 197 211q-55 10 -100 51q-45 43 -45 100q0 55 45 109q47 57 100 92q-57 20 -111 94q-51 72 -51 158q0 119 98 198q100 82 244 82q68 0 164 -26.5t164 -26.5h117q12 -3 12 -49q0 -29 -12 -29h-144q-8 0 -8 -6l23 -47q20 -47 20 -96q0 -109 -96 -195 t-236 -86q-70 0 -112 8q-35 -23 -56 -49q-29 -39 -28.5 -63.5t16.5 -44.5q16 -18 45 -25q41 -8 59.5 -10t65.5 -2h14q242 -2 349 -51q100 -45 100 -142q0 -154 -131 -266q-127 -109 -334 -113q-137 -2 -256 56q-113 55 -113 168zM199 -188q0 -88 88 -140q90 -53 196 -53 q121 0 199 66q76 63 76 145q0 86 -82 113q-86 29 -326 28l-12 -4q-2 -2 -19 -8q-4 -2 -10 -4q-8 -2 -10 -4q-6 -6 -16 -12q-8 -4 -13.5 -8.5t-7.5 -4.5l-16 -12q-14 -10 -17 -14q-6 -12 -12 -18.5t-10 -18.5l-6 -25q-2 -8 -2 -26zM209 1210q0 6 12 17q14 10 22.5 10t8.5 -6 q16 -66 63 -105q51 -41 110.5 -41t111.5 41q47 39 63 105q0 6 8 6t23 -10q12 -10 12 -17v-8q0 -2 -1 -5l-1 -3q-16 -86 -74 -141q-63 -59 -141 -59.5t-141 59.5q-57 55 -74 143l-1 3q-1 3 -1 5v6zM246 592q0 -92 57 -155.5t133 -63.5q78 0 129 59.5t51 142.5q0 92 -57 156 q-59 66 -133 66q-77 0 -129 -62q-51 -59 -51 -143z" />
<glyph unicode="&#x120;" horiz-adv-x="1429" d="M88 643q0 285 190.5 487.5t464.5 202.5q139 0 476 -90q8 -203 8 -248q0 -29 -43 -28q-20 0 -27 10q-55 272 -407 272q-199 0 -334 -170q-133 -166 -133 -409q0 -225 145 -410q147 -186 371 -186q174 0 260 45q12 4 12 28l-2 164v15q0 131 -14 172q-8 20 -66 32 q-59 12 -90 13q-6 0 -6 24q0 27 6 33q74 -2 139.5 -5t93 -4t29.5 -1q4 0 27.5 1t80 4t109.5 5q4 -16 4 -29q0 -29 -8 -28q-6 0 -55 -15q-39 -10 -62 -22q-20 -14 -20 -133q0 -27 4 -92q2 -33 2 -54q0 -39 14.5 -69.5t14.5 -38.5q0 -15 -49 -37l-39 -14q-12 -4 -27.5 -11.5 t-17.5 -7.5t-9.5 -2t-16.5 -5t-19 -7q-29 -10 -58 -15l-59 -12q-25 -6 -74 -10q-29 -2 -82 -6q-61 -4 -98 -4q-266 0 -451 194q-184 194 -184 461zM653 1556q0 41 29 70q31 31 72 31t71 -31q29 -29 29 -70q0 -43 -28.5 -71.5t-71.5 -28.5t-72 28.5t-29 71.5z" />
<glyph unicode="&#x121;" horiz-adv-x="946" d="M57 -231q0 121 197 211q-55 10 -100 51q-45 43 -45 100q0 55 45 109q47 57 100 92q-57 20 -111 94q-51 72 -51 158q0 119 98 198q100 82 244 82q68 0 164 -26.5t164 -26.5h117q12 -3 12 -49q0 -29 -12 -29h-144q-8 0 -8 -6l23 -47q20 -47 20 -96q0 -109 -96 -195 t-236 -86q-70 0 -112 8q-35 -23 -56 -49q-29 -39 -28.5 -63.5t16.5 -44.5q16 -18 45 -25q41 -8 59.5 -10t65.5 -2h14q242 -2 349 -51q100 -45 100 -142q0 -154 -131 -266q-127 -109 -334 -113q-137 -2 -256 56q-113 55 -113 168zM199 -188q0 -88 88 -140q90 -53 196 -53 q121 0 199 66q76 63 76 145q0 86 -82 113q-86 29 -326 28l-12 -4q-2 -2 -19 -8q-4 -2 -10 -4q-8 -2 -10 -4q-6 -6 -16 -12q-8 -4 -13.5 -8.5t-7.5 -4.5l-16 -12q-14 -10 -17 -14q-6 -12 -12 -18.5t-10 -18.5l-6 -25q-2 -8 -2 -26zM246 592q0 -92 57 -155.5t133 -63.5 q78 0 129 59.5t51 142.5q0 92 -57 156q-59 66 -133 66q-77 0 -129 -62q-51 -59 -51 -143zM326 1186q0 43 28.5 71.5t71.5 28.5t71.5 -28.5t28.5 -71.5t-28.5 -72t-71.5 -29t-71.5 29t-28.5 72z" />
<glyph unicode="&#x122;" horiz-adv-x="1429" d="M88 643q0 285 190.5 487.5t464.5 202.5q139 0 476 -90q8 -203 8 -248q0 -29 -43 -28q-20 0 -27 10q-55 272 -407 272q-199 0 -334 -170q-133 -166 -133 -409q0 -225 145 -410q147 -186 371 -186q174 0 260 45q12 4 12 28l-2 164v15q0 131 -14 172q-8 20 -66 32 q-59 12 -90 13q-6 0 -6 24q0 27 6 33q74 -2 139.5 -5t93 -4t29.5 -1q4 0 27.5 1t80 4t109.5 5q4 -16 4 -29q0 -29 -8 -28q-6 0 -55 -15q-39 -10 -62 -22q-20 -14 -20 -133q0 -27 4 -92q2 -33 2 -54q0 -39 14.5 -69.5t14.5 -38.5q0 -15 -49 -37l-39 -14q-12 -4 -27.5 -11.5 t-17.5 -7.5t-9.5 -2t-16.5 -5t-19 -7q-29 -10 -58 -15l-59 -12q-25 -6 -74 -10q-29 -2 -82 -6q-61 -4 -98 -4q-266 0 -451 194q-184 194 -184 461zM621 -440l45 45q47 47 47 73.5t-37 57.5t-37 61q0 43 37 78q35 33 121 33q20 -16 30 -47q12 -33 13 -60q0 -160 -164 -252 q-4 -4 -17 -4q-38 1 -38 15z" />
<glyph unicode="&#x123;" horiz-adv-x="946" d="M57 -231q0 121 197 211q-55 10 -100 51q-45 43 -45 100q0 55 45 109q47 57 100 92q-57 20 -111 94q-51 72 -51 158q0 119 98 198q100 82 244 82q68 0 164 -26.5t164 -26.5h117q12 -3 12 -49q0 -29 -12 -29h-144q-8 0 -8 -6l23 -47q20 -47 20 -96q0 -109 -96 -195 t-236 -86q-70 0 -112 8q-35 -23 -56 -49q-29 -39 -28.5 -63.5t16.5 -44.5q16 -18 45 -25q41 -8 59.5 -10t65.5 -2h14q242 -2 349 -51q100 -45 100 -142q0 -154 -131 -266q-127 -109 -334 -113q-137 -2 -256 56q-113 55 -113 168zM199 -188q0 -88 88 -140q90 -53 196 -53 q121 0 199 66q76 63 76 145q0 86 -82 113q-86 29 -326 28l-12 -4q-2 -2 -19 -8q-4 -2 -10 -4q-8 -2 -10 -4q-6 -6 -16 -12q-8 -4 -13.5 -8.5t-7.5 -4.5l-16 -12q-14 -10 -17 -14q-6 -12 -12 -18.5t-10 -18.5l-6 -25q-2 -8 -2 -26zM246 592q0 -92 57 -155.5t133 -63.5 q78 0 129 59.5t51 142.5q0 92 -57 156q-59 66 -133 66q-77 0 -129 -62q-51 -59 -51 -143zM326 1071q0 92 55 157.5t108 94.5q4 4 17 4q41 0 41 -12l-47 -45q-45 -45 -45 -74q0 -27 36.5 -57.5t36.5 -63.5q0 -41 -39 -76q-35 -33 -118 -32q-20 16 -31 47q-14 39 -14 57z" />
<glyph unicode="&#x124;" horiz-adv-x="1413" d="M76 25q0 27 8 26q27 0 78 12q49 12 55 29q14 51 14 178v777q0 127 -14 178q-6 16 -55 28q-51 12 -78 13q-8 0 -8 26q0 23 8 31q8 0 43 -2t63 -4q53 -4 134 -4q53 0 77 2q12 2 40 3t42 1q43 2 72 4q4 -12 4 -33q0 -25 -6 -24q-25 0 -74 -15q-53 -16 -55 -26 q-18 -70 -18 -187v-299l4 -6q262 -4 305 -4q53 0 295 4q4 4 4 8v306q0 127 -15 178q-6 16 -57 28q-53 12 -76 13q-8 0 -8 24.5t8 32.5q6 0 20.5 -1t39 -2t47.5 -3q55 -4 135 -4q51 0 76 2q12 2 39.5 3t42.5 1q37 2 69 4q4 -16 4 -29q0 -29 -8 -28q-23 0 -71 -15 q-53 -16 -56 -26q-16 -66 -16 -187v-759q0 -121 16 -187q2 -14 56 -26q61 -14 71 -15q8 0 8 -28q0 -12 -4 -29q-221 10 -227 10q-4 0 -29.5 -1t-86 -4t-126.5 -5q-8 8 -8 32.5t8 24.5q23 0 76 12q51 12 57 29q14 51 15 178v353l-4 8q-250 4 -295 4q-309 0 -309 -10v-346 q0 -115 18 -187q2 -14 55 -26q61 -14 74 -15q6 0 6 -22.5t-4 -34.5q-221 10 -231 10q-2 0 -28 -1t-86 -4t-126 -5q-8 8 -8 31zM494 1436l8 8l18 17.5t25 21.5l71 65q57 55 84 92q16 16 21 17q10 0 20 -17q49 -63 82 -96l58 -51l49 -41q18 -14 18 -16q0 -39 -18 -39 q-39 0 -209 114q-47 -35 -119 -75q-70 -39 -88 -39q-20 0 -20 39z" />
<glyph unicode="&#x125;" horiz-adv-x="1058" d="M12 1444q2 2 8.5 8l18.5 17.5t24 21.5l70 65q57 55 84 93q14 14 21 14q14 0 22 -14q51 -63 82 -97l57 -51l50 -41q18 -14 18 -16q0 -39 -18 -39q-41 0 -211 115q-53 -39 -117 -76q-70 -39 -88 -39q-21 0 -21 39zM37 27q0 25 6 24q18 0 72 15q49 12 51 26q14 55 14 137 v869q0 68 -12 129q-8 31 -102 30h-19q-10 0 -10 23q0 33 10 33q72 8 113 14q39 6 80 21q28 9 49 18q12 4 28 16l9 7h4q6 0 16 -13q6 -8 10 -20q-23 -68 -22 -174v-439q0 -8 4 -8q2 0 6 4q41 47 125 92.5t156 45.5q131 0 190 -96.5t59 -297.5v-215q0 -111 17 -176 q2 -14 51 -26q57 -14 68 -15q6 0 8 -22q2 -20 -2 -35q-55 2 -109.5 5t-77 4t-26.5 1q-2 0 -24.5 -1t-75 -4t-111.5 -5q-8 8 -8 32.5t8 24.5q18 0 67 15q45 12 48 26q14 55 14 139v213q0 182 -51.5 246t-157.5 64q-59 0 -118.5 -47.5t-59.5 -81.5v-355q0 -113 16 -178 q2 -14 51 -26q57 -14 68 -15q6 0 8 -22q2 -20 -2 -35q-55 2 -109.5 5t-77 4t-26.5 1t-27.5 -1t-80 -4t-111.5 -5q-6 6 -6 33z" />
<glyph unicode="&#x126;" horiz-adv-x="1474" d="M100 25q0 27 9 26q23 0 75 12q51 12 58 29q14 51 14 178v670h-68q-10 0 -10 27q0 31 12 49h66q0 158 -14 209q-6 16 -58 28q-53 12 -75 13q-8 0 -9 26q0 23 9 31q8 0 41.5 -2t62.5 -4q53 -4 135 -4q53 0 78 2q12 2 40 3t42 1q43 2 72 4q4 -12 4 -33q0 -25 -9 -24 q-23 0 -71 -15q-53 -16 -55 -26q-18 -71 -19 -209q16 -2 307 -2q248 0 301 2q0 158 -14 209q-6 16 -57 28q-53 12 -76 13q-8 0 -8 24.5t8 32.5q6 0 20.5 -1t38 -2t45.5 -3q55 -4 138 -4q51 0 75 2q12 2 39 3t41 1q43 2 72 4q4 -16 4 -29q0 -29 -8 -28q-23 0 -72 -15 q-53 -16 -55 -26q-16 -66 -17 -209h82q10 0 11 -27q0 -31 -13 -49h-80v-661q0 -121 17 -187q2 -14 55 -26q61 -14 72 -15q8 0 8 -28q0 -12 -4 -29q-221 10 -227 10q-4 0 -30 -1t-86.5 -4t-125.5 -5q-8 8 -8 32.5t8 24.5q23 0 76 12q51 12 57 29q14 51 14 178v316l-4 8 q-250 4 -297 4q-307 0 -307 -10v-309q0 -115 19 -187q2 -14 55 -26q61 -14 71 -15q8 0 8.5 -22.5t-3.5 -34.5q-221 10 -232 10q-2 0 -27.5 -1t-86 -4t-125.5 -5q-9 8 -9 31zM430 705q0 -6 4 -7q262 -4 303 -4q55 0 297 4q4 4 4 9v233q-55 2 -301 2q-248 0 -307 -2v-235z" />
<glyph unicode="&#x127;" horiz-adv-x="1069" d="M37 27q0 25 6 24q18 0 72 15q49 12 51 26q14 55 14 137v869q0 68 -12 129q-8 31 -102 30h-19q-10 0 -10 23q0 33 10 33q72 8 113 14q39 6 80 21q28 9 49 18q12 4 28 16l9 7h4q6 0 16 -13q6 -8 10 -20q-23 -68 -22 -174v-439q0 -8 4 -8q2 0 6 4q41 47 125 92.5t156 45.5 q131 0 190 -96.5t59 -297.5v-215q0 -111 17 -176q2 -14 51 -26q57 -14 68 -15q6 0 8 -22q2 -20 -2 -35q-55 2 -109.5 5t-77 4t-26.5 1q-2 0 -24.5 -1t-75 -4t-111.5 -5q-8 8 -8 32.5t8 24.5q18 0 67 15q45 12 48 26q14 55 14 139v213q0 182 -51.5 246t-157.5 64 q-59 0 -118.5 -47.5t-59.5 -81.5v-355q0 -113 16 -178q2 -14 51 -26q57 -14 68 -15q6 0 8 -22q2 -20 -2 -35q-55 2 -109.5 5t-77 4t-26.5 1t-27.5 -1t-80 -4t-111.5 -5q-6 6 -6 33zM74 1083q0 37 12 56h530q12 0 13 -21q0 -35 -13 -59h-532q-10 -1 -10 24z" />
<glyph unicode="&#x128;" horiz-adv-x="634" d="M57 1477q0 55 56 98q53 41 100 41q59 0 139 -41q82 -43 137 -43q72 0 103 67q2 2 12 3q18 0 19 -31q0 -55 -55.5 -98t-100.5 -43q-61 0 -143 43t-138 43q-68 0 -98 -70q-2 -2 -12 -2q-19 0 -19 33zM76 25q0 27 8 26q27 0 78 12q49 12 55 29q14 51 14 178v777 q0 127 -14 178q-6 16 -55 28q-51 12 -78 13q-8 0 -8 26q0 23 8 31q205 -8 240 -8q53 0 231 8q4 -16 4 -29q0 -29 -6 -28q-25 0 -74 -15q-53 -16 -55 -26q-18 -70 -18 -187v-759q0 -115 18 -187q2 -14 55 -26q61 -14 74 -15q6 0 6 -28q0 -12 -4 -29q-221 10 -231 10 q-2 0 -28 -1t-86 -4t-126 -5q-8 8 -8 31z" />
<glyph unicode="&#x129;" horiz-adv-x="563" d="M-25 1040q0 55 56 99q53 41 100 41q59 0 139 -41q82 -43 138 -43q72 0 102 67q2 2 12 2q18 0 19 -30q0 -55 -55.5 -98.5t-100.5 -43.5q-61 0 -143 43t-138 43q-68 0 -98 -69q-2 -2 -12 -2q-19 -1 -19 32zM57 26.5q0 24.5 9 24.5q18 0 71 15q49 12 51 26q14 55 15 139v379 q0 76 -29 109q-20 23 -49 33q-25 8 -47 8q-20 0 -21 4q0 47 13 49q207 31 276 53h4l6 2q8 0 11 -16q2 -18 0 -27q-10 -88 -11 -143v-412q0 -113 17 -178q2 -14 51 -26q57 -14 68 -15q6 0 8 -22q2 -20 -2 -35q-55 2 -109.5 5t-77 4t-26.5 1t-28 -1t-79 -4t-112 -5 q-9 8 -9 32.5z" />
<glyph unicode="&#x12a;" horiz-adv-x="634" d="M63 1501q0 78 29 78h500q12 0 12 -12q0 -29 -14 -70q-2 -4 -6 -8t-6 -4h-5h-495h-4q-4 0 -6 4q-5 8 -5 12zM76 25q0 27 8 26q27 0 78 12q49 12 55 29q14 51 14 178v777q0 127 -14 178q-6 16 -55 28q-51 12 -78 13q-8 0 -8 26q0 23 8 31q205 -8 240 -8q53 0 231 8 q4 -16 4 -29q0 -29 -6 -28q-25 0 -74 -15q-53 -16 -55 -26q-18 -70 -18 -187v-759q0 -115 18 -187q2 -14 55 -26q61 -14 74 -15q6 0 6 -28q0 -12 -4 -29q-221 10 -231 10q-2 0 -28 -1t-86 -4t-126 -5q-8 8 -8 31z" />
<glyph unicode="&#x12b;" horiz-adv-x="563" d="M12 1044q0 74 25 74h416q10 0 10 -14q0 -20 -12 -64q-2 -10 -15 -14h-411q-2 0 -11 4q-2 4 -2 14zM57 26.5q0 24.5 9 24.5q18 0 71 15q49 12 51 26q14 55 15 139v379q0 76 -29 109q-20 23 -49 33q-25 8 -47 8q-20 0 -21 4q0 47 13 49q207 31 276 53h4l6 2q8 0 11 -16 q2 -18 0 -27q-10 -88 -11 -143v-412q0 -113 17 -178q2 -14 51 -26q57 -14 68 -15q6 0 8 -22q2 -20 -2 -35q-55 2 -109.5 5t-77 4t-26.5 1t-28 -1t-79 -4t-112 -5q-9 8 -9 32.5z" />
<glyph unicode="&#x12c;" horiz-adv-x="634" d="M76 25q0 27 8 26q27 0 78 12q49 12 55 29q14 51 14 178v777q0 127 -14 178q-6 16 -55 28q-51 12 -78 13q-8 0 -8 26q0 23 8 31q205 -8 240 -8q53 0 231 8q4 -16 4 -29q0 -29 -6 -28q-25 0 -74 -15q-53 -16 -55 -26q-18 -70 -18 -187v-759q0 -115 18 -187q2 -14 55 -26 q61 -14 74 -15q6 0 6 -28q0 -12 -4 -29q-221 10 -231 10q-2 0 -28 -1t-86 -4t-126 -5q-8 8 -8 31zM113 1645q0 6 12 14q8 6 22 6q8 0 9 -2q16 -57 61 -86q49 -31 112.5 -31t112.5 31q45 29 62 86q0 2 8 2q14 0 23 -6q14 -10 14 -14l-2 -7v-8q-16 -72 -78 -127 q-59 -53 -139 -53q-78 0 -142 53q-57 49 -73 129l-1 2q-1 2 -1 4v7z" />
<glyph unicode="&#x12d;" horiz-adv-x="563" d="M33 1210q0 6 12 17q14 10 22.5 10t8.5 -6q16 -66 63 -105q51 -41 110.5 -41t110.5 41q47 39 64 105q0 6 8 6t22.5 -10t14.5 -17l-2 -8v-8q-16 -84 -76 -141q-63 -59 -141 -59.5t-141 59.5q-57 55 -74 143l-1 3q-1 3 -1 5v6zM57 26.5q0 24.5 9 24.5q18 0 71 15 q49 12 51 26q14 55 15 139v379q0 76 -29 109q-20 23 -49 33q-25 8 -47 8q-20 0 -21 4q0 47 13 49q207 31 276 53h4l6 2q8 0 11 -16q2 -18 0 -27q-10 -88 -11 -143v-412q0 -113 17 -178q2 -14 51 -26q57 -14 68 -15q6 0 8 -22q2 -20 -2 -35q-55 2 -109.5 5t-77 4t-26.5 1 t-28 -1t-79 -4t-112 -5q-9 8 -9 32.5z" />
<glyph unicode="&#x12e;" horiz-adv-x="692" d="M98 25q0 27 8 26q25 0 76 12.5t58 28.5q14 51 14 178v777q0 127 -14 178q-6 16 -57.5 28.5t-76.5 12.5q-8 0 -8 26q0 23 8 31q205 -8 240 -8q53 0 232 8q4 -16 4 -29q0 -29 -9 -28q-23 0 -71 -15q-53 -16 -56 -26q-18 -70 -18 -187v-759q0 -115 18 -187q2 -14 56 -26 q61 -14 71 -15q8 0 9 -28q0 -12 -4 -29q-90 6 -107 6q-74 -45 -145 -117q-68 -68 -68 -127q0 -31 18 -59q18 -27 64 -27q47 0 84 19q25 12 55 39q20 18 23 18q8 0 8 -26.5t-8 -34.5q-102 -133 -209 -134q-74 0 -108.5 51.5t-34.5 102.5q0 78 69 156q74 84 164 143h-37 q-2 0 -27.5 -1t-86 -4t-126.5 -5q-8 8 -8 31z" />
<glyph unicode="&#x12f;" horiz-adv-x="645" d="M98 26.5q0 24.5 8 24.5q16 0 70 15q49 12 51 26q14 55 15 139v379q0 76 -29 109q-20 25 -47 33q-25 8 -49 8q-18 0 -19 4q0 47 13 49q203 29 274 53h6l4 2q8 0 11 -16q2 -18 0 -27q-10 -88 -11 -143v-412q0 -113 17 -178q2 -14 53 -26q57 -14 67 -15q6 0 9 -22 q2 -20 -2 -35q-2 0 -14.5 1t-22.5 1q-31 0 -37 2q-82 -51 -146 -117q-66 -70 -65 -125q0 -31 18 -59q18 -27 64 -27q47 0 84 19q25 12 55 39q20 18 23 18q8 0 8 -26.5t-8 -34.5q-102 -133 -209 -134q-74 0 -109 51.5t-35 102.5q0 74 70 156q66 78 164 141h-27q-6 0 -16 1 t-12 1q-4 0 -27 -1t-78 -4t-113 -5q-8 8 -8 32.5zM215 1186q0 41 31 71q29 29 69 29q43 0 72 -28.5t29 -71.5t-29 -72t-72 -29q-41 0 -69 29q-31 31 -31 72z" />
<glyph unicode="&#x130;" horiz-adv-x="634" d="M76 25q0 27 8 26q27 0 78 12q49 12 55 29q14 51 14 178v777q0 127 -14 178q-6 16 -55 28q-51 12 -78 13q-8 0 -8 26q0 23 8 31q205 -8 240 -8q53 0 231 8q4 -16 4 -29q0 -29 -6 -28q-25 0 -74 -15q-53 -16 -55 -26q-18 -70 -18 -187v-759q0 -115 18 -187q2 -14 55 -26 q61 -14 74 -15q6 0 6 -28q0 -12 -4 -29q-221 10 -231 10q-2 0 -28 -1t-86 -4t-126 -5q-8 8 -8 31zM229 1556q0 41 29 70q31 31 72 31t71 -31q29 -29 29 -70q0 -43 -28.5 -71.5t-71.5 -28.5t-72 28.5t-29 71.5z" />
<glyph unicode="&#x131;" horiz-adv-x="563" d="M57 26.5q0 24.5 9 24.5q18 0 71 15q49 12 51 26q14 55 15 139v379q0 76 -29 109q-20 23 -49 33q-25 8 -47 8q-20 0 -21 4q0 47 13 49q207 31 276 53h4l6 2q8 0 11 -16q2 -18 0 -27q-10 -88 -11 -143v-412q0 -113 17 -178q2 -14 51 -26q57 -14 68 -15q6 0 8 -22 q2 -20 -2 -35q-55 2 -109.5 5t-77 4t-26.5 1t-28 -1t-79 -4t-112 -5q-9 8 -9 32.5z" />
<glyph unicode="&#x132;" horiz-adv-x="1280" d="M131 25q0 27 8 26q25 0 78 12q51 12 57 29q14 51 15 178v777q0 127 -15 178q-6 16 -57 28q-53 12 -78 13q-8 0 -8 26q0 23 8 31q205 -8 242 -8q53 0 231 8q4 -16 4 -29q0 -29 -8 -28q-23 0 -71 -15q-55 -16 -58 -26q-16 -63 -16 -187v-759q0 -123 16 -187q2 -14 58 -26 q61 -14 71 -15q8 0 8 -28q0 -12 -4 -29q-221 10 -231 10q-2 0 -28.5 -1t-87 -4t-126.5 -5q-8 8 -8 31zM168 -348q0 45 37 72q39 29 88 28q35 0 80 -43t71 -43q29 0 57.5 29t55.5 82q31 59 47 151q18 98 19 226v893q0 127 -15 178q-6 16 -57 28.5t-78 12.5q-6 0 -6 26 q0 25 6 31q8 0 43 -2t64 -4q53 -4 135 -4q53 0 78 2q12 2 39.5 3t41.5 1q43 2 72 4q4 -16 4 -29q0 -29 -8 -28q-23 0 -72 -15q-55 -16 -57 -26q-16 -63 -16 -187v-868q0 -252 -141.5 -438.5t-358.5 -186.5q-27 0 -49 9q-37 14 -41 16l-14 8q-25 28 -25 74z" />
<glyph unicode="&#x133;" horiz-adv-x="1036" d="M119 26.5q0 24.5 8 24.5q16 0 70 15q49 12 51 26q14 55 14 139v379q0 76 -29 109q-20 23 -49 33q-25 8 -47 8q-18 0 -18 4q0 47 10 49q207 31 277 53h6l4 2q8 0 10 -16q2 -18 0 -27q-10 -88 -10 -143v-412q0 -113 16 -178q2 -14 51 -26q57 -14 70 -15q4 0 6 -22 q2 -20 -2 -35q-55 2 -109.5 5t-77 4t-26.5 1t-26.5 -1t-78 -4t-112.5 -5q-8 8 -8 32.5zM223 1186q0 41 31 71q29 29 70 29q43 0 71.5 -28.5t28.5 -71.5t-28.5 -72t-71.5 -29q-41 0 -70 29q-31 31 -31 72zM473 -418l25 12q29 14 55 41q37 37 63 80q31 51 54 150 q23 102 22 225v520q0 76 -28 109q-20 23 -50 33q-25 8 -47 8q-18 0 -18 4q0 47 10 49q207 31 277 53h4l2 1q2 1 4 1q8 0 10 -16q2 -18 0 -27q-10 -88 -10 -143v-547q0 -250 -78 -375q-49 -78 -127 -139q-72 -57 -141 -84q-16 12 -27 31q-4 10 0 14zM639 1186q0 41 31 71 q29 29 69 29q43 0 72 -28.5t29 -71.5t-29 -72t-72 -29q-41 0 -69 29q-31 31 -31 72z" />
<glyph unicode="&#x134;" horiz-adv-x="643" d="M-190 -348q0 45 36 72q39 29 88 28q33 0 80 -43t72 -43q29 0 57 29q33 33 58 82q27 53 45 151.5t18 225.5v893q0 127 -14 178q-6 16 -57 28q-53 12 -76 13q-8 0 -8 26q0 23 8 31q8 0 42 -2t62 -4q53 -4 135 -4q53 0 78 2q12 2 40 3t42 1q43 2 72 4q4 -16 4 -29 q0 -29 -8 -28q-23 0 -72 -15q-53 -16 -55 -26q-18 -70 -19 -187v-868q0 -252 -141 -438.5t-358 -186.5q-27 0 -50 9q-37 14 -41 16l-14 8q-24 28 -24 74zM129 1495l8 8t18.5 17.5t24.5 21.5l72 66q57 55 84 92q16 16 20 16q12 0 23 -16q51 -66 82 -96q10 -8 18 -16.5 t15.5 -15.5l21.5 -20l49 -41l19 -16q0 -39 -19 -39q-37 0 -209 117q-57 -43 -118 -78q-70 -39 -88 -39q-21 0 -21 39z" />
<glyph unicode="&#x135;" horiz-adv-x="526" d="M45 -418l25 12q29 14 55 41q37 37 63 80q31 51 54 150q23 102 22 225v520q0 76 -28 109q-20 23 -50 33q-25 8 -47 8q-18 0 -18 4q0 47 10 49q207 31 277 53h4l6 2q8 0 10 -16q2 -18 0 -27q-10 -88 -10 -143v-547q0 -250 -78 -375q-49 -78 -127 -139q-72 -57 -141 -84 q-15 9 -25 31q-6 10 -2 14zM119 981q2 2 7 8t15.5 17.5l20.5 23.5l63 76q45 59 74 106q12 20 16 21q12 0 21 -21l72 -110q16 -20 49 -58q37 -41 43 -47l16 -16q0 -47 -14 -47q-18 0 -78 45q-72 53 -109 88q-45 -45 -102 -88q-59 -45 -78 -45q-16 0 -16 47z" />
<glyph unicode="&#x136;" horiz-adv-x="1384" d="M82 25q0 27 8 26q25 0 78 12q49 12 55 29q14 51 15 178v777q0 127 -15 178q-6 16 -55 28q-53 12 -78 13q-8 0 -8 26q0 23 8 31q8 0 43 -2t64 -4q53 -4 133 -4q53 0 78 2q12 2 39.5 3t41.5 1q43 2 72 4q4 -12 4 -33q0 -25 -8 -24q-23 0 -72 -15q-53 -16 -55 -26 q-18 -70 -18 -187v-325l14 -13h14q63 0 115 58q233 261 344 405q49 57 49 76q0 35 -114 35q-8 0 -9 18q0 10 4 31q31 -2 68 -4q14 0 41 -1t39 -3q25 -2 67 -2q70 0 113 4q63 4 88 6q4 -12 4 -29q0 -20 -8 -20q-123 -14 -182 -84l-404 -467q-16 -18 15 -55l481 -531 q29 -33 86 -55q59 -25 80 -27q37 -4 47 -4t10 -35q0 -10 -4 -22q-221 10 -248 10q-63 0 -90 -2q-14 -2 -44 -3t-46 -1t-46 -1t-44 -3q-8 8 -8 32.5t8 24.5q29 0 55 8q31 9 31 25q0 63 -455 530q-8 8 -57 9q-14 0 -14 -17v-327q0 -115 18 -187q2 -14 55 -26q61 -14 72 -15 q8 0 8 -22.5t-4 -34.5q-221 10 -231 10q-2 0 -28 -1t-86 -4t-126 -5q-8 8 -8 31zM582 -440l47 45q45 45 45 73q0 27 -37 58t-37 61q0 43 39 78q35 33 119 33q20 -16 30 -47q14 -39 15 -60q0 -160 -164 -252q-4 -4 -16 -4q-41 1 -41 15z" />
<glyph unicode="&#x137;" horiz-adv-x="991" d="M29 26.5q0 24.5 8 24.5q16 0 69 15q49 12 52 26q14 55 14 139v867q0 68 -12 129q-8 31 -103 30h-16q-12 0 -12 23q0 33 12 33q68 6 111 14q39 6 79 21q28 9 50 18q12 4 28 16l8 7h5q6 0 16 -13q6 -8 10 -20q-23 -68 -22 -174v-701q41 8 51 19l47.5 39.5t44.5 38.5l72 61 l45 39q25 25 30 33q8 10 9 22q0 25 -45 29q-39 2 -45 8q-14 39 2 45h157q41 0 64 2q12 2 37.5 3t40 1t40 1t37.5 3q10 -4 11 -16q0 -10 -4 -27q-2 -12 -9 -12q-25 0 -73 -12q-45 -10 -64 -23q-53 -33 -131 -94q-82 -63 -166 -147l144 -156l137 -156q63 -68 73 -76 q34 -28 87 -43q55 -16 73 -16q8 0 8 -31q0 -20 -2 -22q-53 2 -109.5 5t-79 4t-28.5 1l-22 -1q-23 -1 -75 -4t-112 -5q-8 8 -8 30.5t8 22.5q25 0 47 8q25 9 25 19q0 4 -2 6l-291 315l-24 -6v-119q2 -127 16 -178q2 -14 51 -26q57 -14 70 -15q4 0 6 -22q4 -25 0 -35 q-55 2 -109.5 5t-78 4t-27.5 1t-27.5 -1t-79 -4t-110.5 -5q-8 8 -8 32.5zM385 -440l45 45q45 45 45 73q0 27 -37 58t-37 61q0 43 39 78q35 33 119 33q23 -18 33 -47q12 -33 12 -60q0 -160 -164 -252q-4 -4 -16 -4q-39 1 -39 15z" />
<glyph unicode="&#x138;" horiz-adv-x="1179" d="M100 26.5q0 24.5 9 24.5q16 0 69 15q49 12 51 26q14 55 15 139v347q0 68 -13 129q-10 31 -102 30h-16q-12 0 -13 23q0 33 13 33q41 4 110 16q52 9 80 18q6 2 49 21q20 8 29 14l8 6h4q8 0 17 -12q6 -8 10 -20q-23 -68 -23 -174v-181q41 8 52 19q63 55 69 59l68 55l55 48 l49 43q6 6 15.5 13t19.5 17q16 12 25 27q6 8 6 16q0 25 -43 29q-45 4 -47 6q-16 41 2 47h157q45 0 66 2q10 2 35.5 3t40 1t41 1t36.5 3q22 -12 7 -55q-4 -4 -31 -4q-74 -6 -117 -31q-16 -12 -141 -114q-113 -92 -197 -170l140 -164l126 -152q53 -63 66 -74q31 -27 84 -43 q55 -16 78 -16q8 0 8 -31q0 -20 -2 -22q-53 2 -109.5 5t-80 4t-29.5 1l-22 -1q-22 -1 -73 -4t-112 -5q-8 8 -8 30.5t8 22.5q23 0 45 8q27 10 27 19q0 4 -2 6l-287 315l-25 -6v-119q-4 -111 17 -178q2 -14 53 -26q57 -14 68 -15q6 0 8 -22q2 -20 -2 -35q-55 2 -109.5 5t-78 4 t-27.5 1t-28 -1t-79 -4t-110 -5q-9 8 -9 32.5z" />
<glyph unicode="&#x139;" horiz-adv-x="1134" d="M72 31q0 25 6 24q29 0 78 13q51 12 59 30q14 23 14 189v755q0 131 -14 183q-6 16 -55 28q-53 12 -78 13q-8 0 -8 26q0 23 8 31q8 0 43 -2t63 -4q53 -4 134 -4q53 0 77 2q12 2 40 3t42 1q49 2 74 4q2 -8 2 -29q0 -29 -6 -28q-25 0 -74 -15q-53 -16 -55 -26 q-18 -70 -19 -187v-753q0 -104 19 -176q6 -20 135 -21h96q186 0 252 35q33 16 68 70q39 59 59 131q4 12 29 12q37 0 49 -12l-31 -82l-32 -92l-13.5 -41l-13.5 -41q-16 -47 -19 -76q-102 0 -323 6t-359 6l-241 -6q-6 6 -6 33zM246 1483q0 12 92 102q106 102 145 131 q12 6 37 6q53 0 78 -18q27 -20 27 -41q0 -47 -160 -127t-199 -80q-20 0 -20 27z" />
<glyph unicode="&#x13a;" horiz-adv-x="501" d="M31 26.5q0 24.5 8 24.5q16 0 70 15q49 12 51 26q14 55 14 139v867q0 68 -12 129q-10 31 -103 30h-16q-12 0 -12 23q0 33 12 33q68 6 111 14q39 6 79 21q28 9 50 18q12 4 28 16l8 7h5q8 0 16 -13q6 -8 10 -20q-23 -68 -22 -174v-912q0 -113 16 -178q2 -14 51 -26 q57 -14 70 -15q4 0 6 -22q2 -20 -2 -35q-55 2 -109.5 5t-77 4t-26.5 1t-26.5 -1t-78 -4t-112.5 -5q-8 8 -8 32.5zM139 1483q0 12 92 102q100 96 148 131q12 6 35 6q53 0 78 -18q27 -20 26 -41q0 -47 -159.5 -127t-198.5 -80q-21 0 -21 27z" />
<glyph unicode="&#x13b;" horiz-adv-x="1134" d="M72 31q0 25 6 24q29 0 78 13q51 12 59 30q14 23 14 189v755q0 131 -14 183q-6 16 -55 28q-53 12 -78 13q-8 0 -8 26q0 23 8 31q8 0 43 -2t63 -4q53 -4 134 -4q53 0 77 2q12 2 40 3t42 1q49 2 74 4q2 -8 2 -29q0 -29 -6 -28q-25 0 -74 -15q-53 -16 -55 -26 q-18 -70 -19 -187v-753q0 -104 19 -176q6 -20 135 -21h96q186 0 252 35q33 16 68 70q39 59 59 131q4 12 29 12q37 0 49 -12l-31 -82l-32 -92l-13.5 -41l-13.5 -41q-16 -47 -19 -76q-102 0 -323 6t-359 6l-241 -6q-6 6 -6 33zM489 -440l48 45q45 45 45 73q0 27 -37 58t-37 61 q0 43 39 78q35 33 119 33q20 -16 30 -47q14 -39 15 -60q0 -160 -164 -252q-4 -4 -17 -4q-41 1 -41 15z" />
<glyph unicode="&#x13c;" horiz-adv-x="501" d="M31 26.5q0 24.5 8 24.5q16 0 70 15q49 12 51 26q14 55 14 139v867q0 68 -12 129q-10 31 -103 30h-16q-12 0 -12 23q0 33 12 33q68 6 111 14q39 6 79 21q28 9 50 18q12 4 28 16l8 7h5q8 0 16 -13q6 -8 10 -20q-23 -68 -22 -174v-912q0 -113 16 -178q2 -14 51 -26 q57 -14 70 -15q4 0 6 -22q2 -20 -2 -35q-55 2 -109.5 5t-77 4t-26.5 1t-26.5 -1t-78 -4t-112.5 -5q-8 8 -8 32.5zM133 -440l47 45q45 45 45 73q0 27 -36.5 58t-36.5 61q0 43 38 78q35 33 119 33q23 -18 33 -47q12 -33 12 -60q0 -160 -164 -252q-4 -4 -16 -4q-41 1 -41 15z " />
<glyph unicode="&#x13d;" horiz-adv-x="1134" d="M72 31q0 25 6 24q29 0 78 13q51 12 59 30q14 23 14 189v755q0 131 -14 183q-6 16 -55 28q-53 12 -78 13q-8 0 -8 26q0 23 8 31q8 0 43 -2t63 -4q53 -4 134 -4q53 0 77 2q12 2 40 3t42 1q49 2 74 4q2 -8 2 -29q0 -29 -6 -28q-25 0 -74 -15q-53 -16 -55 -26 q-18 -70 -19 -187v-753q0 -104 19 -176q6 -20 135 -21h96q186 0 252 35q33 16 68 70q39 59 59 131q4 12 29 12q37 0 49 -12l-31 -82l-32 -92l-13.5 -41l-13.5 -41q-16 -47 -19 -76q-102 0 -323 6t-359 6l-241 -6q-6 6 -6 33zM911 1038l19 17q14 14 35 51q16 31 16 72 q0 12 -20 45q-23 35 -23 61q0 46 37 74q39 29 98 28q31 -37 31 -124q0 -66 -53 -144q-57 -82 -97 -104q-2 -2 -14 -2q-8 0 -18.5 10t-10.5 16z" />
<glyph unicode="&#x13e;" horiz-adv-x="501" d="M31 26.5q0 24.5 8 24.5q16 0 70 15q49 12 51 26q14 55 14 139v867q0 68 -12 129q-10 31 -103 30h-16q-12 0 -12 23q0 33 12 33q68 6 111 14q39 6 79 21q28 9 50 18q12 4 28 16l8 7h5q8 0 16 -13q6 -8 10 -20q-23 -68 -22 -174v-912q0 -113 16 -178q2 -14 51 -26 q57 -14 70 -15q4 0 6 -22q2 -20 -2 -35q-55 2 -109.5 5t-77 4t-26.5 1t-26.5 -1t-78 -4t-112.5 -5q-8 8 -8 32.5zM412 1038l18 17q14 14 35 51q16 31 16 72q0 12 -20 45q-23 35 -23 61q0 46 37 74q39 29 98 28q31 -37 31 -124q0 -66 -53 -144q-57 -82 -96 -104q-2 -2 -15 -2 q-8 0 -18 10t-10 16z" />
<glyph unicode="&#x13f;" horiz-adv-x="1134" d="M72 31q0 25 6 24q29 0 78 13q51 12 59 30q14 23 14 189v755q0 131 -14 183q-6 16 -55 28q-53 12 -78 13q-8 0 -8 26q0 23 8 31q8 0 43 -2t63 -4q53 -4 134 -4q53 0 77 2q12 2 40 3t42 1q49 2 74 4q2 -8 2 -29q0 -29 -6 -28q-25 0 -74 -15q-53 -16 -55 -26 q-18 -70 -19 -187v-753q0 -104 19 -176q6 -20 135 -21h96q186 0 252 35q33 16 68 70q39 59 59 131q4 12 29 12q37 0 49 -12l-31 -82l-32 -92l-13.5 -41l-13.5 -41q-16 -47 -19 -76q-102 0 -323 6t-359 6l-241 -6q-6 6 -6 33zM770 629q0 41 28.5 69.5t71.5 28.5q41 0 70 -29 q31 -31 31 -69q0 -41 -31 -72q-29 -29 -70 -29q-43 0 -71.5 29t-28.5 72z" />
<glyph unicode="&#x140;" horiz-adv-x="858" d="M76 26.5q0 24.5 8 24.5q18 0 72 15q49 12 51 26q12 47 12 139v867q0 78 -10 129q-8 31 -103 30h-18q-12 0 -12 23q0 33 12 33q68 6 111 14q39 6 80 21q28 9 49 18q12 4 28 16l11 7h4q6 0 14 -13q6 -8 10 -20q-20 -61 -20 -174v-912q0 -121 14 -178q2 -14 53 -26 q57 -14 68 -15q6 0 8 -22q2 -20 -2 -35q-55 2 -109.5 5t-78 4t-27.5 1t-27.5 -1t-79 -4t-110.5 -5q-8 8 -8 32.5zM580 588q0 43 28.5 71.5t71.5 28.5t71.5 -28.5t28.5 -71.5t-28.5 -72t-71.5 -29t-71.5 29t-28.5 72z" />
<glyph unicode="&#x141;" horiz-adv-x="1230" d="M104 31q0 25 7 24q29 0 77 13q51 12 60 30q14 23 14 189v153l-119 -84q-4 4 -24 33q-14 20 -8 25l151 106v522q0 131 -14 183q-6 16 -57.5 28.5t-75.5 12.5q-8 0 -9 26q0 23 9 31q8 0 41.5 -2t62.5 -4q53 -4 135 -4q53 0 78 2q12 2 40 3t42 1q43 2 72 4q4 -16 4 -29 q0 -29 -8 -28q-23 0 -72 -15q-53 -16 -55 -26q-18 -70 -19 -187v-399l375 256q8 -8 24.5 -34.5t10.5 -29.5l-410 -272v-274q0 -104 19 -176q6 -20 135 -21h96q186 0 252 35q33 16 68 70q39 59 59 131q4 12 27 12q39 0 51 -12q-2 -6 -11.5 -28t-21.5 -54l-33 -92 q-4 -12 -12 -40l-12 -42q-16 -47 -19 -76q-104 0 -325.5 6t-356.5 6l-241 -6q-7 6 -7 33z" />
<glyph unicode="&#x142;" horiz-adv-x="569" d="M55 26.5q0 24.5 8 24.5q18 0 72 15q49 12 51 26q14 55 15 139v363l-109 -74q-12 12 -24.5 30.5t-6.5 24.5l140 95v428q0 68 -13 129q-8 31 -102 30h-18q-12 0 -13 23q0 33 13 33q68 6 110 14q39 6 80 21q28 9 49 18l31 16l8 7h4q6 0 17 -13q6 -8 10 -20q-23 -68 -23 -174 v-406l103 70q43 -43 30 -53l-133 -93v-430q0 -113 17 -178q2 -14 51 -26q57 -14 67 -15q6 0 9 -22q2 -20 -2 -35q-55 2 -109.5 5t-77 4t-26.5 1t-28 -1t-80 -4t-112 -5q-8 8 -8 32.5z" />
<glyph unicode="&#x143;" horiz-adv-x="1441" d="M41 24.5q0 26.5 4 26.5q23 0 92 17q63 14 70 32q18 45 18 189v784q0 111 -12 152q-6 16 -70 28q-61 12 -90 13q-8 0 -8 24.5t8 32.5q104 -2 205 -2q123 0 160 2q74 -137 678 -979q6 33 6 82v623q0 125 -15 176q-6 16 -67 30q-59 14 -90 15q-8 0 -8 22.5t8 30.5q8 0 43 -2 t61 -4q51 -4 131 -4q51 0 131 6q53 4 95 4q4 -16 4 -29q0 -25 -9 -24q-16 0 -88 -17q-68 -14 -69 -28q-16 -66 -17 -187v-759q0 -123 7 -281q-8 -8 -39 -8q-35 0 -66 47l-776 1100v-854q0 -135 14 -187q2 -12 68 -28q70 -16 82 -17q8 0 8 -22.5t-4 -34.5q-221 10 -230 10 l-231 -10q-4 4 -4 30.5zM594 1483q0 12 92 102q106 102 145 131q12 6 37 6q53 0 78 -18q27 -20 27 -41q0 -45 -162 -127q-160 -80 -197 -80q-20 0 -20 27z" />
<glyph unicode="&#x144;" horiz-adv-x="1085" d="M57 26.5q0 24.5 9 24.5q18 0 71 15q49 12 51 26q14 55 15 139v379q0 76 -29 109q-20 23 -49 33q-25 8 -47 8q-20 0 -21 4q0 47 13 49q207 31 276 53h4l6 2q8 0 11 -16q2 -18 0 -27q-8 -49 -9 -80q0 -8 4 -8q2 0 7 4q47 51 125 93q80 43 149 43q141 0 197 -101 q57 -104 57 -323v-183q0 -121 14 -178q2 -14 54 -26q57 -14 67 -15q6 0 8 -22q2 -20 -2 -35q-55 2 -109.5 5t-78 4t-27.5 1l-22 -1q-23 -1 -75 -4t-112 -5q-8 8 -8 32.5t8 24.5q16 0 68 15q43 12 45 26q14 55 14 139v201q0 188 -47 254q-49 68 -155 68q-63 0 -123 -47.5 t-60 -83.5v-353q0 -113 17 -178q2 -14 51 -26q57 -14 68 -15q6 0 8 -22q2 -20 -2 -35q-55 2 -109.5 5t-77 4t-26.5 1t-28 -1t-79 -4t-112 -5q-9 8 -9 32.5zM473 1024q0 2 33 57q29 49 76 115q63 88 77 104q18 18 68 19q31 0 53 -12q18 -10 25 -21q6 -8 6 -16 q0 -49 -143 -160q-147 -113 -170 -113q-25 0 -25 27z" />
<glyph unicode="&#x145;" horiz-adv-x="1441" d="M41 24.5q0 26.5 4 26.5q23 0 92 17q63 14 70 32q18 45 18 189v784q0 111 -12 152q-6 16 -70 28q-61 12 -90 13q-8 0 -8 24.5t8 32.5q104 -2 205 -2q123 0 160 2q74 -137 678 -979q6 33 6 82v623q0 125 -15 176q-6 16 -67 30q-59 14 -90 15q-8 0 -8 22.5t8 30.5q8 0 43 -2 t61 -4q51 -4 131 -4q51 0 131 6q53 4 95 4q4 -16 4 -29q0 -25 -9 -24q-16 0 -88 -17q-68 -14 -69 -28q-16 -66 -17 -187v-759q0 -123 7 -281q-8 -8 -39 -8q-35 0 -66 47l-776 1100v-854q0 -135 14 -187q2 -12 68 -28q70 -16 82 -17q8 0 8 -22.5t-4 -34.5q-221 10 -230 10 l-231 -10q-4 4 -4 30.5zM629 -440l45 45q47 47 47 73q0 25 -39 58q-37 31 -37 61q0 43 39 78q35 33 121 33q20 -16 31 -47q12 -33 12 -60q0 -160 -164 -252q-4 -4 -16 -4q-39 1 -39 15z" />
<glyph unicode="&#x146;" horiz-adv-x="1085" d="M57 26.5q0 24.5 9 24.5q18 0 71 15q49 12 51 26q14 55 15 139v379q0 76 -29 109q-20 23 -49 33q-25 8 -47 8q-20 0 -21 4q0 47 13 49q207 31 276 53h4l6 2q8 0 11 -16q2 -18 0 -27q-8 -49 -9 -80q0 -8 4 -8q2 0 7 4q47 51 125 93q80 43 149 43q141 0 197 -101 q57 -104 57 -323v-183q0 -121 14 -178q2 -14 54 -26q57 -14 67 -15q6 0 8 -22q2 -20 -2 -35q-55 2 -109.5 5t-78 4t-27.5 1l-22 -1q-23 -1 -75 -4t-112 -5q-8 8 -8 32.5t8 24.5q16 0 68 15q43 12 45 26q14 55 14 139v201q0 188 -47 254q-49 68 -155 68q-63 0 -123 -47.5 t-60 -83.5v-353q0 -113 17 -178q2 -14 51 -26q57 -14 68 -15q6 0 8 -22q2 -20 -2 -35q-55 2 -109.5 5t-77 4t-26.5 1t-28 -1t-79 -4t-112 -5q-9 8 -9 32.5zM420 -440l47 45q45 45 45 73q0 27 -37 58t-37 61q0 43 37 78q35 33 121 33q20 -16 31 -47q12 -33 12 -60 q0 -160 -164 -252q-4 -4 -14 -4q-41 1 -41 15z" />
<glyph unicode="&#x147;" horiz-adv-x="1441" d="M41 24.5q0 26.5 4 26.5q23 0 92 17q63 14 70 32q18 45 18 189v784q0 111 -12 152q-6 16 -70 28q-61 12 -90 13q-8 0 -8 24.5t8 32.5q104 -2 205 -2q123 0 160 2q74 -137 678 -979q6 33 6 82v623q0 125 -15 176q-6 16 -67 30q-59 14 -90 15q-8 0 -8 22.5t8 30.5q8 0 43 -2 t61 -4q51 -4 131 -4q51 0 131 6q53 4 95 4q4 -16 4 -29q0 -25 -9 -24q-16 0 -88 -17q-68 -14 -69 -28q-16 -66 -17 -187v-759q0 -123 7 -281q-8 -8 -39 -8q-35 0 -66 47l-776 1100v-854q0 -135 14 -187q2 -12 68 -28q70 -16 82 -17q8 0 8 -22.5t-4 -34.5q-221 10 -230 10 l-231 -10q-4 4 -4 30.5zM504 1675q0 41 20 41q16 0 88 -41q63 -37 117 -76q172 117 211 117q18 0 18 -41l-2 -2q-2 -2 -7 -5t-9 -7q-4 -2 -13 -10.5t-18.5 -15.5t-17.5 -15l-57 -51q-31 -33 -82 -96q-10 -16 -23 -17q-2 0 -18 17q-27 37 -84 92l-72 63q-10 8 -19.5 17.5 l-14.5 14.5t-10 9t-7 6z" />
<glyph unicode="&#x148;" horiz-adv-x="1085" d="M57 26.5q0 24.5 9 24.5q18 0 71 15q49 12 51 26q14 55 15 139v379q0 76 -29 109q-20 23 -49 33q-25 8 -47 8q-20 0 -21 4q0 47 13 49q207 31 276 53h4l6 2q8 0 11 -16q2 -18 0 -27q-8 -49 -9 -80q0 -8 4 -8q2 0 7 4q47 51 125 93q80 43 149 43q141 0 197 -101 q57 -104 57 -323v-183q0 -121 14 -178q2 -14 54 -26q57 -14 67 -15q6 0 8 -22q2 -20 -2 -35q-55 2 -109.5 5t-78 4t-27.5 1l-22 -1q-23 -1 -75 -4t-112 -5q-8 8 -8 32.5t8 24.5q16 0 68 15q43 12 45 26q14 55 14 139v201q0 188 -47 254q-49 68 -155 68q-63 0 -123 -47.5 t-60 -83.5v-353q0 -113 17 -178q2 -14 51 -26q57 -14 68 -15q6 0 8 -22q2 -20 -2 -35q-55 2 -109.5 5t-77 4t-26.5 1t-28 -1t-79 -4t-112 -5q-9 8 -9 32.5zM342 1249q0 47 18 47q16 0 76 -45q66 -49 105 -88q45 41 106 88q59 45 78 45q16 0 16 -47l-16 -16 q-8 -8 -18.5 -20.5t-24.5 -26.5q-33 -37 -49 -58q-14 -18 -74 -110q-10 -18 -16 -19q-9 0 -19 19q-25 43 -73 104q-8 10 -32 36t-34 38q-33 39 -43 53z" />
<glyph unicode="&#x14a;" horiz-adv-x="1546" d="M98 25q0 27 6 26q20 0 91 17q63 14 69 32q20 49 21 189v784q0 102 -15 152q-6 16 -67.5 28.5t-89.5 12.5q-8 0 -8.5 24.5t8.5 32.5q104 -2 202 -2q123 0 160 2q74 -137 678 -979q6 33 6 82v623q0 131 -12 176q-6 16 -70 30q-59 14 -90 15q-6 0 -6 22q0 25 6 31q8 0 43 -2 t62 -4q51 -4 133 -4q51 0 131 6q53 4 92 4q4 -16 4 -29q0 -25 -8 -24q-14 0 -86 -17q-70 -16 -72 -28q-16 -66 -16 -187v-868q0 -260 -113 -444q-111 -180 -323 -181q-25 0 -48 9q-37 14 -41 16l-16 8q-23 25 -22 74q0 45 36 72q39 29 86 28q35 0 82 -43t70 -43q55 0 111 98 q53 94 65 291l-762 1082v-854q0 -135 15 -187q2 -12 67 -28q70 -16 82 -17q8 0 8 -22.5t-4 -34.5q-221 10 -229 10l-230 -10q-6 6 -6 31z" />
<glyph unicode="&#x14b;" horiz-adv-x="1062" d="M100 26.5q0 24.5 9 24.5q16 0 69 15q49 12 51 26q14 55 15 139v379q0 76 -29 109q-20 25 -47 33q-25 8 -49 8q-18 0 -19 4q0 47 13 49q203 29 274 53h4l6 2q8 0 11 -16q2 -18 0 -27l-11 -88l11 -4q137 143 254 144q135 0 204 -101q72 -102 72 -274v-367q0 -250 -78 -375 q-49 -78 -127 -139q-72 -57 -141 -84q-15 9 -25 31q-6 10 -2 14l25 12q29 14 55 41q37 37 64 82q33 55 53 150q23 102 22 225v363q0 287 -196 286q-59 0 -119 -45q-66 -49 -72 -63v-363q0 -113 17 -178q2 -14 53 -26q57 -14 68 -15q6 0 8 -22q2 -20 -2 -35q-55 2 -109.5 5 t-78 4t-27.5 1t-28 -1t-79 -4t-110 -5q-9 8 -9 32.5z" />
<glyph unicode="&#x14c;" horiz-adv-x="1454" d="M88 655q0 281 186.5 479.5t450.5 198.5q266 0 453 -198q188 -201 188 -479.5t-188.5 -477t-452.5 -198.5q-262 0 -451 198q-186 194 -186 477zM287 700q0 -164 51 -303q51 -141 162 -235q113 -96 258 -96q127 0 223 83.5t141 204.5t45 264q0 162 -51 302 q-51 141 -162 235q-109 94 -258 94q-190 0 -301 -166q-108 -162 -108 -383zM469 1501q0 78 27 78h499q12 0 13 -12q0 -29 -15 -70q-2 -4 -6 -8t-6 -4h-2h-498h-4q-4 0 -6 4t-2 12z" />
<glyph unicode="&#x14d;" horiz-adv-x="1019" d="M74 432q0 182 125 313q123 129 309 129q176 0 307 -131q129 -129 129 -311q0 -184 -125 -315t-307 -131q-180 0 -309 131q-129 133 -129 315zM246 463q0 -166 86 -283t198 -117q106 0 175 101q68 102 67 239q0 166 -86 279q-86 115 -201 115q-104 0 -171.5 -98.5 t-67.5 -235.5zM285 1044q0 74 22 74h418q8 0 8 -14q0 -27 -10 -64q-2 -10 -14 -14h-412q-2 0 -10 4q-2 4 -2 14z" />
<glyph unicode="&#x14e;" horiz-adv-x="1454" d="M88 655q0 281 186.5 479.5t450.5 198.5q266 0 453 -198q188 -201 188 -479.5t-188.5 -477t-452.5 -198.5q-262 0 -451 198q-186 194 -186 477zM287 700q0 -164 51 -303q51 -141 162 -235q113 -96 258 -96q127 0 223 83.5t141 204.5t45 264q0 162 -51 302 q-51 141 -162 235q-109 94 -258 94q-190 0 -301 -166q-108 -162 -108 -383zM518 1645q0 6 12 14q8 6 25 6q6 0 6 -2q16 -55 64 -86q49 -31 110 -31q63 0 113 31q45 29 61 86q0 2 9 2q14 0 22 -6q14 -10 14 -14l-2 -7v-8q-16 -74 -75.5 -127t-141.5 -53q-76 0 -139 53 q-59 51 -76 129l-1 2q-1 2 -1 4v7z" />
<glyph unicode="&#x14f;" horiz-adv-x="1064" d="M102 432q0 184 123 313t312 129q176 0 307 -131q129 -129 129 -311q0 -184 -125 -315t-307.5 -131t-311.5 131q-127 129 -127 315zM274 463q0 -168 84 -283q86 -117 199 -117q106 0 174 101q70 104 70 239q0 166 -86 279q-86 115 -201 115q-104 0 -172 -98.5t-68 -235.5z M313 1210q0 6 14.5 16.5t22.5 10.5t8 -6q16 -66 64 -105q51 -41 110 -41q57 0 108.5 41t66.5 105q0 6 8 6t22 -10q12 -10 13 -17v-8q0 -2 -1 -5l-1 -3q-16 -86 -74 -141q-63 -59 -141 -59.5t-142 59.5q-61 57 -76 143v8z" />
<glyph unicode="&#x150;" horiz-adv-x="1454" d="M88 655q0 281 186.5 479.5t450.5 198.5q266 0 453 -198q188 -201 188 -479.5t-188.5 -477t-452.5 -198.5q-262 0 -451 198q-186 194 -186 477zM287 700q0 -164 51 -303q51 -141 162 -235q113 -96 258 -96q127 0 223 83.5t141 204.5t45 264q0 162 -51 302 q-51 141 -162 235q-109 94 -258 94q-190 0 -301 -166q-108 -162 -108 -383zM530 1483q0 12 93 102q106 102 145 131q12 6 37 6q53 0 77.5 -18t24.5 -41q0 -47 -159.5 -127t-196.5 -80q-21 0 -21 27zM829 1483q0 12 93 102q106 102 145 131q12 6 37 6q53 0 78 -18 q27 -20 26 -41q0 -47 -159.5 -127t-198.5 -80q-21 0 -21 27z" />
<glyph unicode="&#x151;" horiz-adv-x="1019" d="M74 432q0 182 125 313q123 129 309 129q176 0 307 -131q129 -129 129 -311q0 -184 -125 -315t-307 -131q-180 0 -309 131q-129 133 -129 315zM246 463q0 -166 86 -283t198 -117q106 0 175 101q68 102 67 239q0 166 -86 279q-86 115 -201 115q-104 0 -171.5 -98.5 t-67.5 -235.5zM307 1020q0 2 33 57q35 59 76 117q57 80 78 102q18 18 67 19q33 0 53 -12q18 -10 25 -21q4 -6 4 -16q0 -51 -141 -160q-147 -113 -170 -113q-25 0 -25 27zM561 1020q0 2 33 57q35 59 76 117q57 80 78 102q18 18 67 19q33 0 53 -12q18 -10 25 -21q4 -6 4 -16 q0 -51 -141 -160q-147 -113 -170 -113q-25 0 -25 27z" />
<glyph unicode="&#x152;" horiz-adv-x="2068" d="M100 655.5q0 280.5 186.5 479t450.5 198.5q45 0 192.5 -10t256.5 -10q111 0 309 8q150 6 338 6q8 -51 31 -151q27 -117 26 -119q-10 -10 -37 -10q-25 0 -26 14q-31 109 -84 139q-59 33 -150 33h-133q-172 0 -176 -27q-10 -55 -10 -168v-319q0 -12 86 -12h106h80 q29 0 53 8q10 4 22.5 7t14.5 3q10 4 21 25q10 23 14 34q0 2 2 11.5t5 20.5t8 26q2 14 30 14q23 0 33 -10v-377q-8 -8 -31 -8q-27 0 -32 14l-9.5 32.5t-8.5 30l-5 19.5q-8 25 -16 33l-17 12q-27 16 -213 16q-143 0 -143 -18v-309q0 -131 18 -182q6 -20 135 -21h97 q186 0 252 35q31 16 67 70q39 59 60 131q2 12 26 12q39 0 51 -12l-30 -82l-33 -92l-13.5 -41l-13.5 -41q-16 -47 -18 -76q-115 0 -354.5 6t-327.5 6q-72 0 -236 -10q-106 -8 -227 -8q-262 0 -444.5 194.5t-182.5 475zM299 700q0 -166 55 -303q57 -141 176 -239 q121 -98 275 -99q102 0 158 15q61 16 90 61q18 29 32 76q8 25 13 74q2 20 2 100v592q0 131 -70 194q-51 47 -127 64q-70 14 -194 14q-190 0 -301 -166q-109 -162 -109 -383z" />
<glyph unicode="&#x153;" horiz-adv-x="1613" d="M100 432q0 187 123 313q123 127 312 127q217 0 348 -174q104 172 299 172q92 0 161 -34q72 -35 105 -91q34 -55 49 -110q16 -59 16 -113q0 -41 -10 -49q-8 -6 -47 -6q-55 -2 -473 -2q-8 0 -12 -10l-1 -2q-1 -2 -1 -4l-2 -17v-29v-12q0 -4 1 -7l1 -3q10 -109 84 -193 q76 -84 211 -84q63 0 120 23q51 20 84 45q4 4 9.5 8t8.5 7t5 5.5t4 3.5l2 1q12 0 12 -27q0 -25 -12 -37q-141 -150 -295 -149q-209 0 -325 170q-125 -168 -338 -168q-182 0 -312 131q-127 129 -127 315zM272 463q0 -168 84 -283q86 -117 199 -117q106 0 174 101 q70 104 70 239q0 163 -86 277q-86 115 -201 115q-104 0 -172 -98.5t-68 -233.5zM975 561q0 -12 10 -12h365q10 4 10 18q0 57 -53 146q-52 86 -129 86q-74 0 -123 -54q-51 -53 -66 -102q-14 -45 -14 -82z" />
<glyph unicode="&#x154;" horiz-adv-x="1318" d="M76 1282q0 27 8 35l240 -4q33 0 143.5 4t138.5 4q70 0 137 -21q74 -23 140 -61q68 -41 110 -113q45 -78 45 -172q0 -86 -63 -176q-66 -94 -170 -141q-20 -8 -12 -21q104 -215 229 -352q193 -211 311 -211q6 -12 6 -26q0 -18 -6 -31q-23 -6 -53 -6q-280 0 -485 289 q-33 43 -74 104l-59 88q-12 18 -46 59q-27 35 -43 48q-23 18 -41 26t-73 8q-6 0 -14.5 -1t-10.5 -1q-8 0 -16 -8t-8 -24v-293q0 -131 16 -174q10 -29 72 -43q66 -16 86 -17q8 0 8 -26q0 -14 -4 -31q-221 10 -260 10l-244 -10q-6 6 -6 37q0 25 6 24q29 0 78 13q51 12 59 30 q14 23 15 189v755q0 121 -15 172q-6 14 -57 29q-49 14 -80 14q-8 0 -8 25zM410 756q0 -57 174 -58h51q72 0 143 70q76 72 76 186q0 279 -281 279q-94 0 -139 -14q-4 -2 -12 -17q-4 -10 -8 -59q-4 -61 -4 -146v-241zM473 1483q0 12 92 102q100 96 148 131q12 6 35 6 q53 0 77 -18q27 -20 27 -41q0 -47 -160 -127t-198 -80q-21 0 -21 27z" />
<glyph unicode="&#x155;" horiz-adv-x="759" d="M66 26.5q0 24.5 8 24.5q18 0 71 15q49 12 52 26q14 55 14 139v379q0 76 -29 109q-20 23 -49 33q-25 8 -47 8q-20 0 -20 4q0 47 12 49q207 31 276 53h4l7 2q8 0 10 -16q2 -18 0 -27l-13 -100q41 61 99 102q66 47 125 47q119 0 155 -59q0 -72 -20 -100q-23 -33 -55 -33 q-35 0 -66 35q-31 33 -82 33q-63 0 -108 -57.5t-45 -123.5v-299q0 -113 16 -178q2 -14 51 -26q57 -14 70 -15q6 0 8 -22q2 -20 -2 -35q-55 2 -109.5 5t-78 4t-27.5 1t-27.5 -1t-79 -4t-112.5 -5q-8 8 -8 32.5zM381 1030q0 6 31 57q29 49 75 115q63 88 78 105q16 16 70 16 q33 0 51.5 -10t24.5 -20.5t6 -16.5q0 -51 -143.5 -161.5t-170.5 -110.5q-22 -1 -22 26z" />
<glyph unicode="&#x156;" horiz-adv-x="1318" d="M76 1282q0 27 8 35l240 -4q33 0 143.5 4t138.5 4q70 0 137 -21q74 -23 140 -61q68 -41 110 -113q45 -78 45 -172q0 -86 -63 -176q-66 -94 -170 -141q-20 -8 -12 -21q104 -215 229 -352q193 -211 311 -211q6 -12 6 -26q0 -18 -6 -31q-23 -6 -53 -6q-280 0 -485 289 q-33 43 -74 104l-59 88q-12 18 -46 59q-27 35 -43 48q-23 18 -41 26t-73 8q-6 0 -14.5 -1t-10.5 -1q-8 0 -16 -8t-8 -24v-293q0 -131 16 -174q10 -29 72 -43q66 -16 86 -17q8 0 8 -26q0 -14 -4 -31q-221 10 -260 10l-244 -10q-6 6 -6 37q0 25 6 24q29 0 78 13q51 12 59 30 q14 23 15 189v755q0 121 -15 172q-6 14 -57 29q-49 14 -80 14q-8 0 -8 25zM410 756q0 -57 174 -58h51q72 0 143 70q76 72 76 186q0 279 -281 279q-94 0 -139 -14q-4 -2 -12 -17q-4 -10 -8 -59q-4 -61 -4 -146v-241zM600 -440l45 45q47 47 47 73.5t-37 57.5t-37 61 q0 43 37 78q35 33 121 33q20 -16 31 -47q12 -33 12 -60q0 -160 -164 -252q-4 -4 -16 -4q-39 1 -39 15z" />
<glyph unicode="&#x157;" horiz-adv-x="759" d="M66 26.5q0 24.5 8 24.5q18 0 71 15q49 12 52 26q14 55 14 139v379q0 76 -29 109q-20 23 -49 33q-25 8 -47 8q-20 0 -20 4q0 47 12 49q207 31 276 53h4l7 2q8 0 10 -16q2 -18 0 -27l-13 -100q41 61 99 102q66 47 125 47q119 0 155 -59q0 -72 -20 -100q-23 -33 -55 -33 q-35 0 -66 35q-31 33 -82 33q-63 0 -108 -57.5t-45 -123.5v-299q0 -113 16 -178q2 -14 51 -26q57 -14 70 -15q6 0 8 -22q2 -20 -2 -35q-55 2 -109.5 5t-78 4t-27.5 1t-27.5 -1t-79 -4t-112.5 -5q-8 8 -8 32.5zM160 -440l47 45q45 45 45 73q0 27 -37 58t-37 61q0 43 37 78 q35 33 121 33q20 -16 31 -47q14 -39 14 -60q0 -158 -166 -252q-4 -4 -14 -4q-41 1 -41 15z" />
<glyph unicode="&#x158;" horiz-adv-x="1318" d="M76 1282q0 27 8 35l240 -4q33 0 143.5 4t138.5 4q70 0 137 -21q74 -23 140 -61q68 -41 110 -113q45 -78 45 -172q0 -86 -63 -176q-66 -94 -170 -141q-20 -8 -12 -21q104 -215 229 -352q193 -211 311 -211q6 -12 6 -26q0 -18 -6 -31q-23 -6 -53 -6q-280 0 -485 289 q-33 43 -74 104l-59 88q-12 18 -46 59q-27 35 -43 48q-23 18 -41 26t-73 8q-6 0 -14.5 -1t-10.5 -1q-8 0 -16 -8t-8 -24v-293q0 -131 16 -174q10 -29 72 -43q66 -16 86 -17q8 0 8 -26q0 -14 -4 -31q-221 10 -260 10l-244 -10q-6 6 -6 37q0 25 6 24q29 0 78 13q51 12 59 30 q14 23 15 189v755q0 121 -15 172q-6 14 -57 29q-49 14 -80 14q-8 0 -8 25zM387 1675q0 41 21 41q16 0 87.5 -41t118.5 -76q172 117 209 117q18 0 19 -41l-2 -2q-2 -2 -7.5 -5t-9.5 -7q-4 -2 -13 -10.5t-18.5 -15.5t-17.5 -15q-14 -12 -21.5 -19.5l-15.5 -15.5t-18 -16 q-31 -33 -82 -96q-10 -16 -23 -17q-4 0 -20 17q-27 37 -84 92l-72 63q-10 8 -19 17.5t-14.5 14.5t-10.5 9t-7 6zM410 756q0 -57 174 -58h51q72 0 143 70q76 72 76 186q0 279 -281 279q-94 0 -139 -14q-4 -2 -12 -17q-4 -10 -8 -59q-4 -61 -4 -146v-241z" />
<glyph unicode="&#x159;" horiz-adv-x="759" d="M66 26.5q0 24.5 8 24.5q18 0 71 15q49 12 52 26q14 55 14 139v379q0 76 -29 109q-20 23 -49 33q-25 8 -47 8q-20 0 -20 4q0 47 12 49q207 31 276 53h4l7 2q8 0 10 -16q2 -18 0 -27l-13 -100q41 61 99 102q66 47 125 47q119 0 155 -59q0 -72 -20 -100q-23 -33 -55 -33 q-35 0 -66 35q-31 33 -82 33q-63 0 -108 -57.5t-45 -123.5v-299q0 -113 16 -178q2 -14 51 -26q57 -14 70 -15q6 0 8 -22q2 -20 -2 -35q-55 2 -109.5 5t-78 4t-27.5 1t-27.5 -1t-79 -4t-112.5 -5q-8 8 -8 32.5zM205 1255q0 47 16 48q18 0 78 -46q57 -43 102 -88q37 35 109 88 q59 45 78 46q16 0 16 -48q0 -2 -16 -18l-43 -45q-49 -53 -51 -57l-72 -111q-9 -18 -18.5 -18t-18.5 18q-25 43 -74 104q-8 8 -17 20.5t-23.5 28t-22.5 25.5q-35 39 -43 53z" />
<glyph unicode="&#x15a;" horiz-adv-x="980" d="M82 356q0 12 32.5 12.5t49.5 -18.5q68 -289 332 -289q98 0 170 62q70 61 69 170q0 45 -10 74q-8 25 -27 55q-14 25 -45 47q-45 33 -51 37q-37 25 -65 39q-27 16 -45.5 24.5t-22.5 10.5l-80 49q-2 2 -76 49q-55 35 -77 61q-2 2 -56 66q-33 43 -45 84q-12 43 -12 92 q0 154 116.5 252t274.5 98q57 0 84 -4q59 -8 64 -10q8 -2 31.5 -9.5t39.5 -11.5l82 -20q25 -109 25 -287q0 -12 -21 -12q-49 0 -51 18q-8 86 -86 172q-74 82 -182 82q-121 0 -168 -59q-49 -61 -49 -148q0 -43 14 -73q25 -55 27 -58q18 -27 51 -53q45 -37 53 -43l70 -43 q20 -12 40.5 -26.5t22.5 -14.5l72 -43l82 -51q35 -25 67 -53q53 -45 70 -70q20 -29 39 -76q18 -45 18 -92q0 -158 -125 -262t-292 -104q-68 0 -119 8q-76 12 -148 28q-27 6 -50 12.5t-34 8.5l-10 2q-49 245 -49 317zM401 1483q0 12 93 102q106 102 145 131q12 6 37 6 q53 0 78 -18q27 -20 26 -41q0 -47 -159.5 -127t-198.5 -80q-21 0 -21 27z" />
<glyph unicode="&#x15b;" horiz-adv-x="716" d="M82 223q15 12 24 13q29 0 31 -13q12 -59 75.5 -116.5t137.5 -57.5q61 0 105 37q41 35 41 100q0 35 -13 64q-12 27 -43 51q-37 29 -53 39q-8 4 -72 39q-63 33 -67 37q-156 88 -156 215q0 109 86 176t205 67q43 0 111 -12l92 -14q20 -92 24 -205q0 -8 -26.5 -8t-28.5 12 q-8 55 -57 107q-47 51 -109 51q-143 0 -143 -119q0 -35 8 -53q9 -22 31 -43q18 -18 34 -31q18 -14 54 -33q43 -23 51 -28q2 0 8 -4.5t17.5 -10.5t21.5 -12l55 -33q14 -8 47 -35q29 -23 45 -43q12 -14 27 -47q12 -27 12 -59q0 -117 -92 -197t-215 -80q-43 0 -78 7 q-59 10 -82 16q-57 14 -73 16q-12 29 -25 101q-10 55 -10 106zM358 1022q0 6 31 57q29 49 76 115q55 78 80 104q18 18 67 19q31 0 52 -12q18 -10 24 -20.5t6 -16.5q0 -49 -143 -160q-147 -113 -168 -113q-25 0 -25 27z" />
<glyph unicode="&#x15c;" horiz-adv-x="980" d="M82 356q0 12 32.5 12.5t49.5 -18.5q68 -289 332 -289q98 0 170 62q70 61 69 170q0 45 -10 74q-8 25 -27 55q-14 25 -45 47q-45 33 -51 37q-37 25 -65 39q-27 16 -45.5 24.5t-22.5 10.5l-80 49q-2 2 -76 49q-55 35 -77 61q-2 2 -56 66q-33 43 -45 84q-12 43 -12 92 q0 154 116.5 252t274.5 98q57 0 84 -4q59 -8 64 -10q8 -2 31.5 -9.5t39.5 -11.5l82 -20q25 -109 25 -287q0 -12 -21 -12q-49 0 -51 18q-8 86 -86 172q-74 82 -182 82q-121 0 -168 -59q-49 -61 -49 -148q0 -43 14 -73q25 -55 27 -58q18 -27 51 -53q45 -37 53 -43l70 -43 q20 -12 40.5 -26.5t22.5 -14.5l72 -43l82 -51q35 -25 67 -53q53 -45 70 -70q20 -29 39 -76q18 -45 18 -92q0 -158 -125 -262t-292 -104q-68 0 -119 8q-76 12 -148 28q-27 6 -50 12.5t-34 8.5l-10 2q-49 245 -49 317zM297 1436l49 47l72 65q57 55 84 92q16 16 20 17 q12 0 23 -17q49 -63 82 -96q8 -6 22.5 -20.5t32.5 -30.5l49 -41q18 -14 19 -16q0 -39 -19 -39q-39 0 -209 114q-47 -35 -119 -75q-70 -39 -88 -39t-18 39z" />
<glyph unicode="&#x15d;" horiz-adv-x="716" d="M82 223q15 12 24 13q29 0 31 -13q12 -59 75.5 -116.5t137.5 -57.5q61 0 105 37q41 35 41 100q0 35 -13 64q-12 27 -43 51q-37 29 -53 39q-8 4 -72 39q-63 33 -67 37q-156 88 -156 215q0 109 86 176t205 67q43 0 111 -12l92 -14q20 -92 24 -205q0 -8 -26.5 -8t-28.5 12 q-8 55 -57 107q-47 51 -109 51q-143 0 -143 -119q0 -35 8 -53q9 -22 31 -43q18 -18 34 -31q18 -14 54 -33q43 -23 51 -28q2 0 8 -4.5t17.5 -10.5t21.5 -12l55 -33q14 -8 47 -35q29 -23 45 -43q12 -14 27 -47q12 -27 12 -59q0 -117 -92 -197t-215 -80q-43 0 -78 7 q-59 10 -82 16q-57 14 -73 16q-12 29 -25 101q-10 55 -10 106zM156 981q2 2 7 8t16 17.5l22 23.5l63 76q45 59 74 106q12 20 16 21q12 0 21 -21q68 -104 71 -110q16 -20 50 -58q37 -41 43 -47l16 -16q0 -47 -14 -47q-18 0 -78 45q-72 53 -109 88q-39 -39 -104 -88 q-59 -45 -76 -45q-18 0 -18 47z" />
<glyph unicode="&#x15e;" horiz-adv-x="980" d="M82 356q0 12 32.5 12.5t49.5 -18.5q68 -289 332 -289q98 0 170 62q70 61 69 170q0 45 -10 74q-8 25 -27 55q-14 25 -45 47q-45 33 -51 37q-37 25 -65 39q-27 16 -45.5 24.5t-22.5 10.5l-80 49q-2 2 -76 49q-55 35 -77 61q-2 2 -56 66q-33 43 -45 84q-12 43 -12 92 q0 154 116.5 252t274.5 98q57 0 84 -4q59 -8 64 -10q8 -2 31.5 -9.5t39.5 -11.5l82 -20q25 -109 25 -287q0 -12 -21 -12q-49 0 -51 18q-8 86 -86 172q-74 82 -182 82q-121 0 -168 -59q-49 -61 -49 -148q0 -43 14 -73q25 -55 27 -58q18 -27 51 -53q45 -37 53 -43l70 -43 q20 -12 40.5 -26.5t22.5 -14.5l72 -43l82 -51q35 -25 67 -53q53 -45 70 -70q20 -29 39 -76q18 -45 18 -92q0 -158 -125 -262t-292 -104q-68 0 -119 8q-76 12 -148 28q-27 6 -50 12.5t-34 8.5l-10 2q-49 245 -49 317zM336 -301q0 10 12 20q14 10 23 11q12 0 38.5 -14.5 t47.5 -14.5q45 0 73 23q27 20 27 55t-22.5 57.5t-49.5 22.5q-23 0 -61 -17q-2 0 -14.5 12.5t-10.5 18.5l37 53q31 45 39 66h51l-45 -53h62q45 0 73.5 -35t28.5 -82q0 -80 -63 -129q-66 -49 -158 -49q-53 0 -80 20q0 1 -1 5q-2 5 -3 9q-4 17 -4 21z" />
<glyph unicode="&#x15f;" horiz-adv-x="716" d="M82 223q15 12 24 13q29 0 31 -13q12 -59 75.5 -116.5t137.5 -57.5q61 0 105 37q41 35 41 100q0 35 -13 64q-12 27 -43 51q-37 29 -53 39q-8 4 -72 39q-63 33 -67 37q-156 88 -156 215q0 109 86 176t205 67q43 0 111 -12l92 -14q20 -92 24 -205q0 -8 -26.5 -8t-28.5 12 q-8 55 -57 107q-47 51 -109 51q-143 0 -143 -119q0 -35 8 -53q9 -22 31 -43q18 -18 34 -31q18 -14 54 -33q43 -23 51 -28q2 0 8 -4.5t17.5 -10.5t21.5 -12l55 -33q14 -8 47 -35q29 -23 45 -43q12 -14 27 -47q12 -27 12 -59q0 -117 -92 -197t-215 -80q-43 0 -78 7 q-59 10 -82 16q-57 14 -73 16q-12 29 -25 101q-10 55 -10 106zM211 -262q0 10 8 18q10 10 19 11q6 0 34 -15q25 -12 39 -12q41 0 63.5 18.5t22.5 46.5q0 35 -18.5 51.5t-42.5 16.5q-23 0 -51 -12q-4 0 -15 10q-8 8 -6 14l33 49q8 10 14 21.5l10.5 20l6.5 12.5h43l-37 -45h51 q37 0 61.5 -29t24.5 -70q0 -70 -53 -110.5t-133 -40.5q-45 0 -70 16q0 6 -2 12.5t-2 16.5z" />
<glyph unicode="&#x160;" horiz-adv-x="980" d="M82 356q0 12 32.5 12.5t49.5 -18.5q68 -289 332 -289q98 0 170 62q70 61 69 170q0 45 -10 74q-8 25 -27 55q-14 25 -45 47q-45 33 -51 37q-37 25 -65 39q-27 16 -45.5 24.5t-22.5 10.5l-80 49q-2 2 -76 49q-55 35 -77 61q-2 2 -56 66q-33 43 -45 84q-12 43 -12 92 q0 154 116.5 252t274.5 98q57 0 84 -4q59 -8 64 -10q8 -2 31.5 -9.5t39.5 -11.5l82 -20q25 -109 25 -287q0 -12 -21 -12q-49 0 -51 18q-8 86 -86 172q-74 82 -182 82q-121 0 -168 -59q-49 -61 -49 -148q0 -43 14 -73q25 -55 27 -58q18 -27 51 -53q45 -37 53 -43l70 -43 q20 -12 40.5 -26.5t22.5 -14.5l72 -43l82 -51q35 -25 67 -53q53 -45 70 -70q20 -29 39 -76q18 -45 18 -92q0 -158 -125 -262t-292 -104q-68 0 -119 8q-76 12 -148 28q-27 6 -50 12.5t-34 8.5l-10 2q-49 245 -49 317zM297 1675q0 41 18 41q16 0 88 -41t119 -76 q172 117 209 117q18 0 19 -41l-2 -2q-2 -2 -7.5 -5t-9.5 -7q-4 -2 -13 -10.5t-18.5 -15.5t-17.5 -15q-14 -12 -21.5 -19.5l-15.5 -15.5t-18 -16q-33 -33 -82 -96q-10 -16 -23 -17q-4 0 -20 17q-27 37 -84 92l-72 63z" />
<glyph unicode="&#x161;" horiz-adv-x="765" d="M100 223q15 12 25 13q27 0 31 -13q12 -59 75.5 -116.5t137.5 -57.5q61 0 104 37q41 35 41 100q0 35 -12 64q-12 27 -43 51q-37 29 -53 39q-8 4 -72 39q-63 33 -68 37q-156 88 -155 215q0 109 86 176t202 67q45 0 113 -12l92 -14q20 -92 25 -205q0 -8 -27 -8q-29 0 -31 12 q-8 55 -57 107q-47 51 -106 51q-143 0 -144 -119q0 -35 8 -53q9 -22 31 -43q18 -18 35 -31q18 -14 53 -33q43 -23 51 -28q2 0 8.5 -4.5t17.5 -10.5t21 -12l56 -33q14 -8 47 -35q27 -23 45 -43q12 -14 27 -47q12 -27 12 -59q0 -117 -92 -197t-215 -80q-45 0 -78 7 q-59 10 -82 16q-55 14 -76 16q-8 20 -22 101q-11 55 -11 106zM199 1247q0 47 16 47q18 0 78 -45q57 -43 102 -88q37 35 109 88q59 45 78 45q16 0 16 -47l-16 -16q-8 -8 -18.5 -20.5t-24.5 -26.5q-49 -53 -52 -58l-71 -110q-9 -18 -19 -19q-8 0 -16 19q-20 35 -76 104 q-8 8 -17 20.5t-23.5 28t-22.5 25.5q-33 39 -43 53z" />
<glyph unicode="&#x162;" horiz-adv-x="1337" d="M55 1057l39 284q84 -20 137 -20q29 0 213.5 -4t225.5 -4q43 0 227 4t213 4q53 0 137 20l39 -284q-14 -14 -49 -15q-14 0 -18 11q-27 106 -70 143q-41 35 -156 35q-211 0 -219 -31q-18 -66 -18 -201v-720q0 -115 18 -187q2 -14 55 -26q61 -14 72 -15q8 0 8 -28 q0 -12 -4 -29q-221 10 -231 10q-2 0 -27.5 -1t-86 -4t-126.5 -5q-8 8 -8 31q0 27 8 26q25 0 78 12q49 12 55 29q14 51 15 178v723q0 176 -19 207q-15 31 -215 31q-115 0 -155.5 -35t-67.5 -143q-4 -10 -21 -11q-35 1 -49 15zM571 -440l47 45q45 45 46 73q0 27 -37 58t-37 61 q0 43 39 78q35 33 119 33q20 -16 30 -47q14 -39 15 -60q0 -160 -164 -252q-4 -4 -17 -4q-41 1 -41 15z" />
<glyph unicode="&#x163;" horiz-adv-x="626" d="M35 791q0 12 2 14q57 25 125 104q18 23 43 60l35 57q14 23 14 27q59 0 59 -11v-198h158h38.5h31t21.5 -1t16 -1h6q16 0 16 -19q0 -37 -20 -75h-267v-490q0 -78 41 -129q39 -47 109 -47q55 0 123 39q6 3 18 -19q12 -20 10 -22q-35 -35 -92 -64q-61 -31 -129 -30 q-96 0 -166 65q-68 63 -67 189v508h-117q-8 0 -8 43zM272 -440l45 45q47 47 47.5 73.5t-36.5 57.5t-37 61q0 43 37 78q35 33 121 33q20 -16 30 -47q12 -33 13 -60q0 -160 -164 -252q-4 -4 -17 -4q-39 1 -39 15z" />
<glyph unicode="&#x164;" horiz-adv-x="1337" d="M55 1057l39 284q84 -20 137 -20q29 0 213.5 -4t225.5 -4q43 0 227 4t213 4q53 0 137 20l39 -284q-14 -14 -49 -15q-14 0 -18 11q-27 106 -70 143q-41 35 -156 35q-211 0 -219 -31q-18 -66 -18 -201v-720q0 -115 18 -187q2 -14 55 -26q61 -14 72 -15q8 0 8 -28 q0 -12 -4 -29q-221 10 -231 10q-2 0 -27.5 -1t-86 -4t-126.5 -5q-8 8 -8 31q0 27 8 26q25 0 78 12q49 12 55 29q14 51 15 178v723q0 176 -19 207q-15 31 -215 31q-115 0 -155.5 -35t-67.5 -143q-4 -10 -21 -11q-35 1 -49 15zM455 1683q0 41 18 41q16 0 88 -41t119 -75 q172 117 211 116q16 0 16 -41q0 -2 -16 -16q-4 -2 -13.5 -10l-18.5 -15.5t-17 -15.5l-27.5 -22.5t-30.5 -26.5q-31 -33 -82 -96q-10 -16 -22 -17q-4 0 -21 17q-27 37 -84 92l-69 63q-10 8 -19.5 17.5l-14.5 14.5t-10 9t-7 6z" />
<glyph unicode="&#x165;" horiz-adv-x="626" d="M35 791q0 12 2 14q57 25 125 104q18 23 43 60l35 57q14 23 14 27q59 0 59 -11v-198h158h38.5h31t21.5 -1t16 -1h6q16 0 16 -19q0 -37 -20 -75h-267v-490q0 -78 41 -129q39 -47 109 -47q55 0 123 39q6 3 18 -19q12 -20 10 -22q-35 -35 -92 -64q-61 -31 -129 -30 q-96 0 -166 65q-68 63 -67 189v508h-117q-8 0 -8 43zM446 977l17 16q18 18 35 49q18 34 18 74q0 10 -22.5 43t-22.5 64q0 45 39 73q35 27 98 27q31 -37 31 -123q0 -63 -55 -143q-57 -82 -97 -105q-2 -2 -14 -2q-8 0 -16 8q-11 11 -11 19z" />
<glyph unicode="&#x166;" horiz-adv-x="1400" d="M86 1057l39 284q84 -20 137 -20q29 0 213 -4t225 -4t225.5 4t215.5 4q53 0 137 20l39 -284q-14 -14 -49 -15q-16 0 -21 11q-27 109 -67.5 143.5t-155.5 34.5q-209 0 -219 -31q-18 -66 -19 -201v-720q0 -115 19 -187q2 -14 55 -26q61 -14 72 -15q8 0 8 -28q0 -12 -4 -29 q-221 10 -231 10q-2 0 -28 -1t-86.5 -4t-125.5 -5q-8 8 -8 31q0 27 8 26q23 0 76 12q51 12 57 29q14 51 14 178v723q0 176 -18 207q-16 31 -215 31q-115 0 -156 -35q-43 -37 -69 -143q-4 -10 -21 -11q-33 1 -47 15zM346 641q0 37 12 55h689q12 0 12 -20q0 -33 -12 -60h-691 q-10 0 -10 25z" />
<glyph unicode="&#x167;" horiz-adv-x="632" d="M20 791q0 12 3 14q57 25 124 104q18 23 43 60l35 57q14 23 15 27q59 0 59 -11v-198h160h38.5h31t21.5 -1t14 -1h5q16 0 17 -19q0 -37 -21 -75h-266v-490q0 -76 43 -129q39 -47 107 -47q55 0 122 39q6 3 19 -19q12 -20 10 -22q-35 -35 -92 -64q-61 -31 -127 -30 q-98 0 -168 65q-68 63 -68 189v508h-114q-11 0 -11 43zM23 561q0 37 12 55h534q12 0 13 -20q0 -31 -13 -59h-536q-10 -1 -10 24z" />
<glyph unicode="&#x168;" horiz-adv-x="1437" d="M66 1292q0 23 8 31q205 -8 239 -8q55 0 234 8q4 -16 4 -27q0 -31 -8 -30q-25 0 -74 -15q-53 -16 -55 -26q-18 -70 -19 -187v-446q0 -223 97 -361q94 -133 272 -133q342 0 342 451v500q0 125 -14 176q-6 16 -68 30q-59 14 -90 15q-8 0 -8 22.5t8 30.5q8 0 43 -2t61 -4 q51 -4 131 -4q51 0 131 6q53 4 95 4q4 -16 4 -29q0 -25 -8 -24q-16 0 -88 -17q-68 -14 -70 -28q-16 -66 -16 -187v-485q0 -311 -131.5 -432t-368.5 -121q-240 0 -367 139q-129 141 -129 453v455q0 133 -12 178q-6 16 -57 28q-53 12 -78 13q-8 -1 -8 26zM477 1477q0 55 55 98 q53 41 103 41q57 0 137 -41q84 -43 137 -43q72 0 103 67q2 2 12 3q18 0 18 -31q0 -55 -55 -98t-100 -43q-59 0 -143.5 43t-137.5 43q-68 0 -98 -70q-2 -2 -12 -2q-19 0 -19 33z" />
<glyph unicode="&#x169;" horiz-adv-x="1032" d="M57 764q0 47 13 49q207 31 276 53h4l6 2q8 0 11 -16q2 -18 0 -27q-12 -95 -13 -147v-270q0 -156 45 -227.5t152 -71.5q55 0 113 47q55 46 55 80v374q0 76 -29 109q-20 23 -49 33q-25 8 -47 8q-20 0 -21 4q0 47 13 49q207 31 276 53h4l6 2q8 0 11 -16q2 -18 0 -27 q-12 -96 -13 -143v-399q0 -94 15 -154q2 -12 20 -20q12 -6 39 -11q29 -4 39 -4h18q6 -4 7 -22q0 -10 -4 -19q-6 -12 -13 -12q-41 -4 -65 -8q-49 -8 -70 -15l-28.5 -7t-30.5 -9q-29 -8 -45 -12l-19 -6q-14 0 -14 32v103l-4 8q-133 -141 -262 -141q-76 0 -127 37 q-53 37 -78 98q-27 66 -35 119q-10 66 -10 118v252q0 76 -29 109q-20 23 -49 33q-25 8 -47 8q-21 0 -21 4zM199 1042q0 55 55 99q53 41 100 41q57 0 138 -41q82 -43 139 -43q70 0 100 67q2 2 12 2q18 0 19 -30q0 -55 -55.5 -98.5t-100.5 -43.5q-58 0 -141 43q-84 43 -139 43 q-68 0 -99 -69q-2 -2 -12 -2q-16 -1 -16 32z" />
<glyph unicode="&#x16a;" horiz-adv-x="1437" d="M66 1292q0 23 8 31q205 -8 239 -8q55 0 234 8q4 -16 4 -27q0 -31 -8 -30q-25 0 -74 -15q-53 -16 -55 -26q-18 -70 -19 -187v-446q0 -223 97 -361q94 -133 272 -133q342 0 342 451v500q0 125 -14 176q-6 16 -68 30q-59 14 -90 15q-8 0 -8 22.5t8 30.5q8 0 43 -2t61 -4 q51 -4 131 -4q51 0 131 6q53 4 95 4q4 -16 4 -29q0 -25 -8 -24q-16 0 -88 -17q-68 -14 -70 -28q-16 -66 -16 -187v-485q0 -311 -131.5 -432t-368.5 -121q-240 0 -367 139q-129 141 -129 453v455q0 133 -12 178q-6 16 -57 28q-53 12 -78 13q-8 -1 -8 26zM473 1501q0 78 29 78 h499q12 0 13 -12q0 -29 -15 -70q-2 -4 -6 -8t-6 -4h-4h-496h-4q-4 0 -6 4q-4 8 -4 12z" />
<glyph unicode="&#x16b;" horiz-adv-x="1032" d="M57 764q0 47 13 49q207 31 276 53h4l6 2q8 0 11 -16q2 -18 0 -27q-12 -95 -13 -147v-270q0 -156 45 -227.5t152 -71.5q55 0 113 47q55 46 55 80v374q0 76 -29 109q-20 23 -49 33q-25 8 -47 8q-20 0 -21 4q0 47 13 49q207 31 276 53h4l6 2q8 0 11 -16q2 -18 0 -27 q-12 -96 -13 -143v-399q0 -94 15 -154q2 -12 20 -20q12 -6 39 -11q29 -4 39 -4h18q6 -4 7 -22q0 -10 -4 -19q-6 -12 -13 -12q-41 -4 -65 -8q-49 -8 -70 -15l-28.5 -7t-30.5 -9q-29 -8 -45 -12l-19 -6q-14 0 -14 32v103l-4 8q-133 -141 -262 -141q-76 0 -127 37 q-53 37 -78 98q-27 66 -35 119q-10 66 -10 118v252q0 76 -29 109q-20 23 -49 33q-25 8 -47 8q-21 0 -21 4zM303 1044q0 74 25 74h415q10 0 11 -14q0 -20 -13 -64q-2 -10 -14 -14h-412l-8 4q-4 8 -4 14z" />
<glyph unicode="&#x16c;" horiz-adv-x="1437" d="M66 1292q0 23 8 31q205 -8 239 -8q55 0 234 8q4 -16 4 -27q0 -31 -8 -30q-25 0 -74 -15q-53 -16 -55 -26q-18 -70 -19 -187v-446q0 -223 97 -361q94 -133 272 -133q342 0 342 451v500q0 125 -14 176q-6 16 -68 30q-59 14 -90 15q-8 0 -8 22.5t8 30.5q8 0 43 -2t61 -4 q51 -4 131 -4q51 0 131 6q53 4 95 4q4 -16 4 -29q0 -25 -8 -24q-16 0 -88 -17q-68 -14 -70 -28q-16 -66 -16 -187v-485q0 -311 -131.5 -432t-368.5 -121q-240 0 -367 139q-129 141 -129 453v455q0 133 -12 178q-6 16 -57 28q-53 12 -78 13q-8 -1 -8 26zM524 1645q0 6 13 14 q8 6 22 6q8 0 8 -2q16 -55 64 -86q49 -31 110 -31q63 0 113 31q45 29 61 86q0 2 9 2q14 0 22 -6q14 -10 15 -14l-3 -7v-8q-16 -74 -75.5 -127t-141.5 -53q-78 0 -141 53q-57 49 -74 129l-1 2q-1 2 -1 4v7z" />
<glyph unicode="&#x16d;" horiz-adv-x="1032" d="M57 764q0 47 13 49q207 31 276 53h4l6 2q8 0 11 -16q2 -18 0 -27q-12 -95 -13 -147v-270q0 -156 45 -227.5t152 -71.5q55 0 113 47q55 46 55 80v374q0 76 -29 109q-20 23 -49 33q-25 8 -47 8q-20 0 -21 4q0 47 13 49q207 31 276 53h4l6 2q8 0 11 -16q2 -18 0 -27 q-12 -96 -13 -143v-399q0 -94 15 -154q2 -12 20 -20q12 -6 39 -11q29 -4 39 -4h18q6 -4 7 -22q0 -10 -4 -19q-6 -12 -13 -12q-41 -4 -65 -8q-49 -8 -70 -15l-28.5 -7t-30.5 -9q-29 -8 -45 -12l-19 -6q-14 0 -14 32v103l-4 8q-133 -141 -262 -141q-76 0 -127 37 q-53 37 -78 98q-27 66 -35 119q-10 66 -10 118v252q0 76 -29 109q-20 23 -49 33q-25 8 -47 8q-21 0 -21 4zM311 1210q0 6 14.5 16.5t22.5 10.5t8 -6q16 -66 64 -105q51 -41 110 -41q57 0 108.5 41t66.5 105q0 6 8 6t22 -10q12 -10 13 -17v-8q0 -2 -2 -5l-1 -3 q-16 -86 -73 -141q-63 -59 -141 -59.5t-142 59.5q-61 57 -76 143v8z" />
<glyph unicode="&#x16e;" horiz-adv-x="1437" d="M66 1292q0 23 8 31q205 -8 239 -8q55 0 234 8q4 -16 4 -27q0 -31 -8 -30q-25 0 -74 -15q-53 -16 -55 -26q-18 -70 -19 -187v-446q0 -223 97 -361q94 -133 272 -133q342 0 342 451v500q0 125 -14 176q-6 16 -68 30q-59 14 -90 15q-8 0 -8 22.5t8 30.5q8 0 43 -2t61 -4 q51 -4 131 -4q51 0 131 6q53 4 95 4q4 -16 4 -29q0 -25 -8 -24q-16 0 -88 -17q-68 -14 -70 -28q-16 -66 -16 -187v-485q0 -311 -131.5 -432t-368.5 -121q-240 0 -367 139q-129 141 -129 453v455q0 133 -12 178q-6 16 -57 28q-53 12 -78 13q-8 -1 -8 26zM565 1636 q0 72 53.5 125.5t124.5 53.5q70 0 123 -54q51 -51 52 -125q0 -76 -52 -127q-53 -53 -123 -53q-72 0 -125 53t-53 127zM633 1636q0 -47 32.5 -79.5t77.5 -32.5t76 32q33 37 33 80q0 47 -31 78q-33 33 -78 33q-41 0 -77 -33q-33 -31 -33 -78z" />
<glyph unicode="&#x16f;" horiz-adv-x="1032" d="M57 764q0 47 13 49q207 31 276 53h4l6 2q8 0 11 -16q2 -18 0 -27q-12 -95 -13 -147v-270q0 -156 45 -227.5t152 -71.5q55 0 113 47q55 46 55 80v374q0 76 -29 109q-20 23 -49 33q-25 8 -47 8q-20 0 -21 4q0 47 13 49q207 31 276 53h4l6 2q8 0 11 -16q2 -18 0 -27 q-12 -96 -13 -143v-399q0 -94 15 -154q2 -12 20 -20q12 -6 39 -11q29 -4 39 -4h18q6 -4 7 -22q0 -10 -4 -19q-6 -12 -13 -12q-41 -4 -65 -8q-49 -8 -70 -15l-28.5 -7t-30.5 -9q-29 -8 -45 -12l-19 -6q-14 0 -14 32v103l-4 8q-133 -141 -262 -141q-76 0 -127 37 q-53 37 -78 98q-27 66 -35 119q-10 66 -10 118v252q0 76 -29 109q-20 23 -49 33q-25 8 -47 8q-21 0 -21 4zM350 1173.5q0 75.5 51.5 127t124.5 51.5q72 0 123 -51.5t51 -127t-51 -126.5q-53 -53 -123 -54q-72 0 -125 54q-51 51 -51 126.5zM416 1174q0 -41 33 -78 q31 -33 77 -33q45 0 76 33q33 37 33 78q0 45 -33 77.5t-76 32.5q-45 0 -77.5 -32.5t-32.5 -77.5z" />
<glyph unicode="&#x170;" horiz-adv-x="1437" d="M66 1292q0 23 8 31q205 -8 239 -8q55 0 234 8q4 -16 4 -27q0 -31 -8 -30q-25 0 -74 -15q-53 -16 -55 -26q-18 -70 -19 -187v-446q0 -223 97 -361q94 -133 272 -133q342 0 342 451v500q0 125 -14 176q-6 16 -68 30q-59 14 -90 15q-8 0 -8 22.5t8 30.5q8 0 43 -2t61 -4 q51 -4 131 -4q51 0 131 6q53 4 95 4q4 -16 4 -29q0 -25 -8 -24q-16 0 -88 -17q-68 -14 -70 -28q-16 -66 -16 -187v-485q0 -311 -131.5 -432t-368.5 -121q-240 0 -367 139q-129 141 -129 453v455q0 133 -12 178q-6 16 -57 28q-53 12 -78 13q-8 -1 -8 26zM500 1483 q0 12 92 102q106 102 145 131q12 6 37 6q53 0 78 -18q27 -20 27 -41q0 -47 -160 -127t-199 -80q-20 0 -20 27zM801 1483q0 12 92 102q106 102 145 131q12 6 35 6q53 0 78 -18q27 -20 27 -41q0 -47 -160 -127t-199 -80q-18 0 -18 27z" />
<glyph unicode="&#x171;" horiz-adv-x="1032" d="M57 764q0 47 13 49q207 31 276 53h4l6 2q8 0 11 -16q2 -18 0 -27q-12 -95 -13 -147v-270q0 -156 45 -227.5t152 -71.5q55 0 113 47q55 46 55 80v374q0 76 -29 109q-20 23 -49 33q-25 8 -47 8q-20 0 -21 4q0 47 13 49q207 31 276 53h4l6 2q8 0 11 -16q2 -18 0 -27 q-12 -96 -13 -143v-399q0 -94 15 -154q2 -12 20 -20q12 -6 39 -11q29 -4 39 -4h18q6 -4 7 -22q0 -10 -4 -19q-6 -12 -13 -12q-41 -4 -65 -8q-49 -8 -70 -15l-28.5 -7t-30.5 -9q-29 -8 -45 -12l-19 -6q-14 0 -14 32v103l-4 8q-133 -141 -262 -141q-76 0 -127 37 q-53 37 -78 98q-27 66 -35 119q-10 66 -10 118v252q0 76 -29 109q-20 23 -49 33q-25 8 -47 8q-21 0 -21 4zM311 1020q0 4 31 57q27 45 78 117q57 80 78 102q18 18 67 19q33 0 53 -12q18 -10 25 -21q4 -6 4 -16q0 -51 -141 -160q-147 -113 -170 -113q-25 0 -25 27zM565 1020 q0 2 33 57q35 59 76 117q57 80 78 102q18 18 67 19q33 0 53 -12q18 -10 25 -21q4 -6 4 -16q0 -51 -141 -160q-147 -113 -170 -113q-25 0 -25 27z" />
<glyph unicode="&#x172;" horiz-adv-x="1513" d="M86 1292q0 23 8 31q205 -8 240 -8q53 0 231 8q4 -16 4 -27q0 -31 -8 -30q-23 0 -72 -15q-53 -16 -55 -26q-18 -70 -18 -187v-446q0 -223 96 -361q94 -133 272 -133q342 0 342 451v500q0 125 -14 176q-6 16 -70 30q-59 14 -88 15q-8 0 -8 22.5t8 30.5q8 0 43 -2t62 -4 q51 -4 131 -4q51 0 131 6q53 4 92 4q4 -16 4 -29q0 -25 -8 -24q-14 0 -86 -17q-70 -16 -72 -28q-14 -57 -14 -187v-485q0 -201 -53.5 -311.5t-167.5 -186.5q-98 -66 -129 -90q-53 -41 -94 -94q-49 -61 -50 -115q0 -31 19 -59q18 -27 63 -27q47 0 84 19q29 14 58 39 q8 6 15 13l5 5q10 0 10 -27q0 -16 -10 -32q-101 -135 -209 -136q-74 0 -108 52q-33 47 -33 102q0 80 65 170q63 86 140 131q-49 -6 -107 -6q-238 0 -364 139q-129 141 -129 453v455q0 127 -15 178q-6 16 -57 28.5t-76 12.5q-8 -1 -8 26z" />
<glyph unicode="&#x173;" horiz-adv-x="1024" d="M20 764q0 47 13 49q203 29 274 53h4l2 1q2 1 4 1q8 0 11 -16q2 -18 0 -27q-12 -95 -13 -147v-270q0 -152 47 -228q45 -72 150 -71q57 0 115 47q53 45 53 80v374q0 76 -29 109q-20 23 -49 33q-25 8 -47 8q-18 0 -18 4q0 47 12 49q203 29 274 53h4l2 1q2 1 5 1q8 0 10 -16 q2 -18 0 -27q-12 -96 -13 -143v-399q0 -94 15 -154q2 -10 22 -20q14 -6 37 -11q29 -4 39 -4h21q6 -4 6 -22q0 -6 -6.5 -18.5t-10.5 -12.5t-41 -4q-57 -8 -149 -113q-88 -100 -88 -174q0 -33 18.5 -59.5t63.5 -26.5q47 0 84 19q25 12 55 38q20 18 23 19q10 0 10 -27 q0 -18 -10 -35q-102 -133 -209 -133q-74 0 -109 51.5t-35 104.5q0 57 68 160q63 94 133 143l-72 -20q-16 0 -16 32v103l-4 8q-131 -141 -262 -141q-74 0 -127.5 36.5t-77.5 98.5q-27 66 -35 119q-10 66 -10 118v252q0 76 -29 109q-20 23 -49 33q-25 8 -47 8q-19 0 -19 4z " />
<glyph unicode="&#x174;" horiz-adv-x="2150" d="M33 1292q0 23 8 31q205 -8 252 -8q31 0 209 8q4 -12 4 -33q0 -25 -8 -24q-18 0 -33 -2q-22 -3 -43 -19q-25 -18 -25 -37q0 -57 47 -147l414 -821q6 -10 16 -4q12 8 15 14l166 346l-211 432q-61 123 -117 193q-14 20 -53 32q-37 12 -62 13q-8 0 -8 30q0 18 8 27 q205 -8 252 -8q29 0 207 8q4 -12 4 -33q0 -25 -8 -24q-20 0 -33 -2q-20 -4 -41 -19q-23 -16 -22 -37q0 -55 45 -147l133 -270l139 292q29 63 29 117q0 34 -43 49q-45 16 -76 17q-8 0 -8 24.5t8 32.5q141 -8 203 -8q29 0 207 8q4 -12 4 -33q0 -25 -8 -24q-14 0 -68 -17 q-49 -14 -70 -39q-35 -41 -116 -206l-154 -316l217 -448q12 -20 25 10l358 821q35 86 35 127q0 20 -27 41q-20 14 -49 23q-16 4 -39 4q-8 0 -8 24.5t8 32.5q141 -8 205 -8q55 0 76 2l61 4q10 2 30.5 2h29.5q4 -16 4 -29q0 -29 -8 -28q-23 0 -64 -15q-43 -16 -65 -41 q-58 -68 -117 -202l-424 -961q-31 -63 -78 -63q-12 0 -18 10l-244 500l-215 -447q-31 -63 -78 -63q-12 0 -18 10l-521 1034q-61 123 -116 193q-14 20 -54 32q-37 12 -61 13q-8 -1 -8 26zM897 1436l8 8t18.5 17.5t24.5 21.5l72 65q57 55 84 92q16 16 20 17q12 0 23 -17 q49 -63 82 -96q8 -6 22.5 -20.5t32.5 -30.5l49 -41q18 -14 19 -16q0 -39 -19 -39q-39 0 -209 114q-47 -35 -118 -75q-70 -39 -88 -39q-21 0 -21 39z" />
<glyph unicode="&#x175;" horiz-adv-x="1466" d="M16 835.5q0 24.5 9 32.5q10 -2 31.5 -3t33.5 -1t33.5 -1t32.5 -3q20 -2 65 -2l201 10q4 -12 4 -32q0 -25 -8 -25q-100 0 -101 -47q0 -4 25 -59l88 -189l125 -276l78 217l57 168q18 49 18.5 57t-10.5 33q-6 14 -18 39l-10 16q-12 18 -37 31q-25 10 -66 10q-8 0 -8 24.5 t8 32.5q10 -2 33 -3t33 -1t31.5 -1t31.5 -3q18 -2 66 -2q45 0 63 2q10 2 33 3t35 1t33.5 1t31.5 3q4 -16 4.5 -34.5t-6.5 -22.5q-96 0 -96 -80q0 -47 219 -491l76 223l26.5 74.5l17.5 47l11.5 31t12.5 39.5q20 61 20 84q0 72 -131 72h-8q-8 0 -8 24.5t8 32.5q10 -2 32.5 -3 t35 -1t35 -1t32.5 -3q20 -2 68 -2q43 0 59 2q8 2 26.5 3t28.5 1l64 4q4 -16 4 -30q0 -27 -10 -27q-27 0 -70 -18q-45 -18 -59 -56l-263 -714q-16 -45 -55 -46q-23 0 -24 9l-246 587l-203 -550q0 -2 -2 -7.5t-4 -9.5q-4 -6 -21 -18q-14 -10 -26 -11q-23 0 -25 9 q-23 49 -108 260q-78 188 -115 270q-53 115 -127 250q-27 45 -106 45q-9 0 -9 24.5zM580 981q2 2 7 8t16 17.5l22 23.5l63 76q45 59 74 106q12 20 16 21q12 0 21 -21q68 -104 71 -110q16 -20 50 -58q37 -41 43 -47l16 -16q0 -47 -14 -47q-18 0 -78 45q-72 53 -109 88 q-39 -39 -104 -88q-59 -45 -76 -45q-18 0 -18 47z" />
<glyph unicode="&#x176;" horiz-adv-x="1296" d="M31 1292.5q0 22.5 8 30.5q45 -2 106 -6q51 -4 134 -4q66 0 264 10q2 -6 2 -31q0 -23 -6 -22q-39 0 -78 -17q-43 -18 -43 -51q0 -20 22 -59l224 -424q12 -10 20 4q272 410 272 481q0 20 -41 43t-98 23q-6 0 -6 22q0 25 6 31q184 -10 238 -10q63 0 127 6q43 4 84 4 q4 -16 4 -29q0 -25 -8 -24q-23 0 -84 -19q-57 -16 -80 -43l-221 -358q-145 -242 -146 -268v-303q0 -121 17 -187q2 -12 55 -28.5t67 -16.5q8 0 9 -24q0 -12 -5 -29q-221 10 -225 10q-2 0 -26.5 -1t-83 -4t-125.5 -5q-8 8 -8 29q0 25 8 24q29 0 73 14q49 15 56 31 q14 57 14 193v250q0 28 -43 110q-63 123 -248 453q-33 63 -49 84q-23 27 -49 45q-14 10 -66 28q-41 14 -63 15q-8 0 -8 22.5zM436 1436q2 2 8.5 8l18.5 17.5t24 21.5l70 65q57 55 84 92q16 16 21 17q12 0 22 -17q49 -63 82 -96l57 -51l49 -41q18 -14 19 -16q0 -39 -19 -39 q-41 0 -210 114q-53 -39 -117 -75q-70 -39 -88 -39q-21 0 -21 39z" />
<glyph unicode="&#x177;" horiz-adv-x="907" d="M4 835.5q0 24.5 8 32.5q57 -2 111.5 -5t77 -4t26.5 -1q45 0 64 2q10 2 31.5 3t34 1t34 1t31.5 3q4 -16 4 -30q0 -27 -8 -27q-18 0 -53 -14q-39 -16 -41 -29v-4q0 -37 215 -522l151 438q14 41 15 61q0 31 -31 50q-35 20 -84 20q-8 0 -8 24.5t8 32.5l78 -6q70 -4 100 -4 q27 0 96 4l78 6q4 -16 4 -30q0 -27 -8 -27q-25 0 -72 -18q-41 -16 -57 -60l-358 -964q-47 -125 -105 -175q-59 -49 -106 -49q-39 0 -62 27q-20 23 -20 51q0 43 28 66q164 0 220 172l24 71q6 14 13.5 37t9.5 31l-287 700q-20 45 -39 68q-18 18 -55 30.5t-60 12.5 q-8 0 -8 24.5zM303 981q2 2 7 8t16.5 17.5t21.5 23.5l64 76q45 59 73 106q12 20 17 21q12 0 20 -21l72 -110q16 -20 49 -58q37 -41 43 -47l16 -16q0 -47 -14 -47q-18 0 -78 45q-72 53 -108 88q-39 -39 -105 -88q-59 -45 -75 -45q-19 0 -19 47z" />
<glyph unicode="&#x178;" horiz-adv-x="1296" d="M31 1292.5q0 22.5 8 30.5q45 -2 106 -6q51 -4 134 -4q66 0 264 10q2 -6 2 -31q0 -23 -6 -22q-39 0 -78 -17q-43 -18 -43 -51q0 -20 22 -59l224 -424q12 -10 20 4q272 410 272 481q0 20 -41 43t-98 23q-6 0 -6 22q0 25 6 31q184 -10 238 -10q63 0 127 6q43 4 84 4 q4 -16 4 -29q0 -25 -8 -24q-23 0 -84 -19q-57 -16 -80 -43l-221 -358q-145 -242 -146 -268v-303q0 -121 17 -187q2 -12 55 -28.5t67 -16.5q8 0 9 -24q0 -12 -5 -29q-221 10 -225 10q-2 0 -26.5 -1t-83 -4t-125.5 -5q-8 8 -8 29q0 25 8 24q29 0 73 14q49 15 56 31 q14 57 14 193v250q0 28 -43 110q-63 123 -248 453q-33 63 -49 84q-23 27 -49 45q-14 10 -66 28q-41 14 -63 15q-8 0 -8 22.5zM389 1556q0 39 31 70t69 31q41 0 72 -31q29 -29 29 -70q0 -43 -29 -71.5t-72 -28.5q-41 0 -69 29q-31 30 -31 71zM752 1556q0 41 28 70 q31 31 72 31t72 -31q29 -29 28 -70q0 -43 -28.5 -71.5t-71.5 -28.5t-71.5 28.5t-28.5 71.5z" />
<glyph unicode="&#x179;" horiz-adv-x="1198" d="M57 979q55 252 68 350q14 -4 143 -10q126 -6 160 -6h217q182 0 422 18q6 -4 12 -24q6 -25 6 -41q-4 -16 -747 -1114q-14 -20 -14 -29q0 -20 28 -21h453q74 0 123 21q51 20 86 65q25 31 47 72q8 12 35 84q2 6 28 6q29 0 47 -18q-61 -199 -88 -332h-991q-16 20 -16 51 q0 27 8 35l766 1131h-424q-131 0 -188 -56q-59 -57 -97 -192q-2 -8 -18 -8q-48 0 -66 18zM473 1483q0 12 92 102q100 96 148 131q12 6 35 6q53 0 77 -18q27 -20 27 -41q0 -47 -160 -127t-198 -80q-21 0 -21 27z" />
<glyph unicode="&#x17a;" horiz-adv-x="827" d="M57 45q0 6 2 8l514 715l-297 2q-41 0 -65 -18q-31 -23 -37 -39q-4 -8 -16 -51q-9 -31 -13 -37q-6 -12 -47 -13q-23 0 -22 6q0 14 14 95q15 86 19 147q117 -12 190 -12h244q102 0 243 16q6 -8 7 -49l-508 -692q-14 -20 -15 -29q0 -14 25 -14h260q84 0 125 43q39 41 59 117 q4 23 17 22q43 0 57 -24l-41 -238h-674q-41 25 -41 45zM354 1020q0 4 31 57q35 59 76 117q49 70 80 102q18 18 67 19q31 0 51 -12q18 -10 25 -21q6 -8 6 -16q0 -49 -143 -160q-147 -113 -168 -113q-25 0 -25 27z" />
<glyph unicode="&#x17b;" horiz-adv-x="1198" d="M57 979q55 252 68 350q14 -4 143 -10q126 -6 160 -6h217q182 0 422 18q6 -4 12 -24q6 -25 6 -41q-4 -16 -747 -1114q-14 -20 -14 -29q0 -20 28 -21h453q74 0 123 21q51 20 86 65q25 31 47 72q8 12 35 84q2 6 28 6q29 0 47 -18q-61 -199 -88 -332h-991q-16 20 -16 51 q0 27 8 35l766 1131h-424q-131 0 -188 -56q-59 -57 -97 -192q-2 -8 -18 -8q-48 0 -66 18zM532 1556q0 41 29 70q31 31 72 31q39 0 69 -31q29 -29 29 -70q0 -43 -28.5 -71.5t-69.5 -28.5q-43 0 -72 28.5t-29 71.5z" />
<glyph unicode="&#x17c;" horiz-adv-x="827" d="M57 45q0 6 2 8l514 715l-297 2q-41 0 -65 -18q-31 -23 -37 -39q-4 -8 -16 -51q-9 -31 -13 -37q-6 -12 -47 -13q-23 0 -22 6q0 14 14 95q15 86 19 147q117 -12 190 -12h244q102 0 243 16q6 -8 7 -49l-508 -692q-14 -20 -15 -29q0 -14 25 -14h260q84 0 125 43q39 41 59 117 q4 23 17 22q43 0 57 -24l-41 -238h-674q-41 25 -41 45zM362 1186q0 43 29 71.5t72 28.5q41 0 69.5 -28.5t28.5 -71.5t-28.5 -72t-69.5 -29q-43 0 -72 29t-29 72z" />
<glyph unicode="&#x17d;" horiz-adv-x="1198" d="M57 979q55 252 68 350q14 -4 143 -10q126 -6 160 -6h217q182 0 422 18q6 -4 12 -24q6 -25 6 -41q-4 -16 -747 -1114q-14 -20 -14 -29q0 -20 28 -21h453q74 0 123 21q51 20 86 65q25 31 47 72q8 12 35 84q2 6 28 6q29 0 47 -18q-61 -199 -88 -332h-991q-16 20 -16 51 q0 27 8 35l766 1131h-424q-131 0 -188 -56q-59 -57 -97 -192q-2 -8 -18 -8q-48 0 -66 18zM408 1675q0 41 20 41q16 0 88 -41t119 -76q172 117 209 117q18 0 18 -41l-2 -2q-2 -2 -7 -5t-9 -7q-4 -2 -13.5 -10.5t-18.5 -15.5t-17 -15l-58 -51q-33 -33 -82 -96q-10 -16 -20 -17 q-4 0 -21 17q-27 37 -84 92l-71 63q-10 8 -19.5 17.5l-14.5 14.5t-10 9t-7 6z" />
<glyph unicode="&#x17e;" horiz-adv-x="827" d="M57 45q0 6 2 8l514 715l-297 2q-41 0 -65 -18q-31 -23 -37 -39q-4 -8 -16 -51q-9 -31 -13 -37q-6 -12 -47 -13q-23 0 -22 6q0 14 14 95q15 86 19 147q117 -12 190 -12h244q102 0 243 16q6 -8 7 -49l-508 -692q-14 -20 -15 -29q0 -14 25 -14h260q84 0 125 43q39 41 59 117 q4 23 17 22q43 0 57 -24l-41 -238h-674q-41 25 -41 45zM238 1243q0 47 18 47q16 0 76 -45q66 -49 104 -88q37 35 109 88q59 45 78 45q16 0 16 -47l-16 -16l-45 -47q-33 -37 -50 -58l-71 -110q-9 -18 -18.5 -18.5t-18.5 18.5q-25 43 -74 104l-63 76q-8 10 -16.5 19.5 t-13.5 14.5t-9 10t-6 7z" />
</font>
</defs>
</svg>
